Ответить на тему
Статистика раздачи [Обновить пиров]
Размер:  703 MB   |    Зарегистрирован:  7 месяцев 10 дней   |    Скачан:  0 раз
Сидов:  67  [  0 KB/s  ]   Личеров:  6  [  0 KB/s  ]  
 
     
 
 
Автор Сообщение

RelizMAN ®

11

Создавать темы 09-Авг-2018 18:45

[Цитировать]

Handel - Israel in Egypt / Гендель - Израиль в Египте
Жанр: Classical oratorio
Страна-производитель диска: Made in Germany
Год издания диска: оригинал - 2009; переиздание - 2016
Издатель (лейбл): Carus
Номер по каталогу: оригинал - 83.423; переиздание - 83.040
Дата записи: 2008
Аудиокодек: FLAC
Тип рипа: image+.cue
Битрейт аудио: lossless
Продолжительность: 70'30 + 49'16 / 01:59:27
Источник: релизер
сайт-источник/ник/другое: makdelart, подарок; Caterina Sforza - работа с cue, доп. сканы
Наличие сканов в содержимом раздачи: да

Обложка оригинала 2009 года



Треклист

CD1

Part I.1 Symphony 02:452 Chorus: The sons of Israel do mourn 09:233 Quartet: When the ear heard him 03:034 Chorus: How is the mighty fall’n 06:445 Soli and Chorus: The righteous shall be had 03:306 Chorus: Their bodies are buried in peace 04:287 Chorus: The people will tell of their wisdom 01:498 Quartet: They shall receive 03:26
Part II.9 Chorus: The merciful goodness of the Lord 03:5510 Recit. (Tenore): Now there arose a new king 00:2411 Solo and Chorus: And the children of Israel 03:3312 Recit. (Tenore): Then sent he Moses 00:3913 Chorus: They loathed to drink of the river 02:2514 Air (Alto): Their land brought forth frogs 02:1915 Chorus: He spake the word 02:1616 Chorus: He gave them hailstones for rain 02:1617 Chorus: He sent a thick darkness 02:5218 Chorus: He smote all the firstborn of Egypt 02:2719 Chorus: But as for his people 04:0420 Chorus: Egypt was glad when they departed 02:3721 Chorus: He rebuked the Red Sea 02:4122 Chorus: And Israel saw that great work 02:44

CD2

Part III.1 Chorus: Moses and the children of Israel 03:302 Duet (Soprano I e II): The Lord is my strength 03:343 Chorus: He is my God 03:044 Duet (Basso I e II): The Lord is a man of war 05:385 Chorus: The dephts have cover’d them 02:086 Chorus: Thy right hand, O Lord 03:347 Chorus: And with the blast of thy nostrils 02:538 Air (Tenore): The enemy said, I will pursue 02:179 Air (Soprano I): Thou didst blow with the wind 02:1710 Chorus: Who is like unto thee, O Lord 01:5811 Duet (Alto, Tenore): Thou in thy mercy hast led forth thy people 04:1212 Chorus: The people shall hear 05:1013 Air (Alto): Thou shalt bring them in 03:2414 Chorus: The Lord shall reign for ever and ever 00:4015 Recit. (Tenore): For the horse of Pharaoh 00:2616 Chorus: The Lord shall reign for ever and ever 00:3917 Recit. (Tenore): And Miriam the prophetess 00:2418 Solo and Chorus: Sing ye to the Lord 03:19

Исполнители

George Frideric Handel (1685-1759)
Israel in Egypt
Antonia Bourvé (soprano I)Cornelia Winter (soprano II)Terry Wey (alto I)Michael Hofmeister (alto II)Jan Kobow (tenore)Konstantin Wolff (basso I)Markus Flaig (basso II)
Vokalensemble RastattLes FavoritesHolger Speck (conductor)
Release Date March 10, 2009

Лог создания рипа

CD1

Exact Audio Copy V1.3 from 2. September 2016
EAC extraction logfile from 21. May 2018, 16:08
Holger Speck / Handel - Israel in Egypt (Disc 1)
Used drive : ATAPI iHAS124 F Adapter: 1 ID: 0
Read mode : SecureUtilize accurate stream : YesDefeat audio cache : YesMake use of C2 pointers : No
Read offset correction : 6Overread into Lead-In and Lead-Out : NoFill up missing offset samples with silence : YesDelete leading and trailing silent blocks : NoNull samples used in CRC calculations : YesUsed interface : Native Win32 interface for Win NT & 2000
Used output format : User Defined EncoderSelected bitrate : 1024 kBit/sQuality : HighAdd ID3 tag : NoCommand line compressor : C:\Program Files (x86)\Exact Audio Copy\FLAC\FLAC.EXEAdditional command line options : -8 -V -T "TITLE=%title%" -T "ARTIST=%artist%" -T "ALBUMARTIST=%albumartist%" -T "ALBUM=%albumtitle%" -T "DATE=%year%" -T "TRACKNUMBER=%tracknr%" -T "TRACKTOTAL=%numtracks%" -T "GENRE=%genre%" -T "COMMENT=%comment%" -T "PERFORMER=%albuminterpret%" -T "COMPOSER=%composer%" %source% -o %dest%
TOC of the extracted CD
Track | Start | Length | Start sector | End sector --------------------------------------------------------- 1 | 0:00.00 | 2:45.12 | 0 | 12386 2 | 2:45.12 | 9:23.50 | 12387 | 54661 3 | 12:08.62 | 3:03.17 | 54662 | 68403 4 | 15:12.04 | 6:44.18 | 68404 | 98721 5 | 21:56.22 | 3:30.52 | 98722 | 114523 6 | 25:26.74 | 4:28.13 | 114524 | 134636 7 | 29:55.12 | 1:49.10 | 134637 | 142821 8 | 31:44.22 | 3:26.07 | 142822 | 158278 9 | 35:10.29 | 3:55.58 | 158279 | 175961 10 | 39:06.12 | 0:24.07 | 175962 | 177768 11 | 39:30.19 | 3:33.24 | 177769 | 193767 12 | 43:03.43 | 0:39.27 | 193768 | 196719 13 | 43:42.70 | 2:25.70 | 196720 | 207664 14 | 46:08.65 | 2:19.16 | 207665 | 218105 15 | 48:28.06 | 2:16.59 | 218106 | 228364 16 | 50:44.65 | 2:16.45 | 228365 | 238609 17 | 53:01.35 | 2:52.73 | 238610 | 251582 18 | 55:54.33 | 2:27.11 | 251583 | 262618 19 | 58:21.44 | 4:04.38 | 262619 | 280956 20 | 62:26.07 | 2:37.58 | 280957 | 292789 21 | 65:03.65 | 2:41.73 | 292790 | 304937 22 | 67:45.63 | 2:44.14 | 304938 | 317251
Range status and errors
Selected range
Filename C:\EACRip\HANDEL\Handel - Oratorien [Carus, 13CD]\CD5 - Israel in Egypt (I)\Handel - Israel in Egypt (Disc 1) - Holger Speck.wav
Peak level 95.2 % Extraction speed 9.6 X Range quality 99.9 % Test CRC 0CE0331C Copy CRC 0CE0331C Copy OK
No errors occurred
AccurateRip summary
Track 1 accurately ripped (confidence 2) [834A219B] (AR v2)Track 2 accurately ripped (confidence 2) [8D1A5034] (AR v2)Track 3 accurately ripped (confidence 2) [349EB856] (AR v2)Track 4 accurately ripped (confidence 2) [F3A7031A] (AR v2)Track 5 accurately ripped (confidence 2) [F61F800D] (AR v2)Track 6 accurately ripped (confidence 2) [8CED699C] (AR v2)Track 7 accurately ripped (confidence 2) [CD814C19] (AR v2)Track 8 accurately ripped (confidence 2) [F1F04AC3] (AR v2)Track 9 accurately ripped (confidence 2) [111CE60D] (AR v2)Track 10 accurately ripped (confidence 2) [8FF817FA] (AR v2)Track 11 accurately ripped (confidence 2) [8700431E] (AR v2)Track 12 accurately ripped (confidence 2) [EF3D11AC] (AR v2)Track 13 accurately ripped (confidence 2) [14792FAB] (AR v2)Track 14 accurately ripped (confidence 2) [B16AB9F1] (AR v2)Track 15 accurately ripped (confidence 2) [D7989977] (AR v2)Track 16 accurately ripped (confidence 2) [9368BC37] (AR v2)Track 17 accurately ripped (confidence 2) [3B8ACA8E] (AR v2)Track 18 accurately ripped (confidence 2) [7F793771] (AR v2)Track 19 accurately ripped (confidence 2) [6C6C2E3F] (AR v2)Track 20 accurately ripped (confidence 2) [E9CBFD65] (AR v2)Track 21 accurately ripped (confidence 2) [2A330EDC] (AR v2)Track 22 accurately ripped (confidence 2) [00BC0CDF] (AR v2)
All tracks accurately ripped
End of status report
---- CUETools DB Plugin V2.1.6
[CTDB TOCID: o4G0m7erqj9YsPxZO2_ne09Byqo-] foundSubmit result: o4G0m7erqj9YsPxZO2_ne09Byqo- has been confirmedTrack | CTDB Status 1 | (2/2) Accurately ripped 2 | (2/2) Accurately ripped 3 | (2/2) Accurately ripped 4 | (2/2) Accurately ripped 5 | (2/2) Accurately ripped 6 | (2/2) Accurately ripped 7 | (2/2) Accurately ripped 8 | (2/2) Accurately ripped 9 | (2/2) Accurately ripped 10 | (2/2) Accurately ripped 11 | (2/2) Accurately ripped 12 | (2/2) Accurately ripped 13 | (2/2) Accurately ripped 14 | (2/2) Accurately ripped 15 | (2/2) Accurately ripped 16 | (2/2) Accurately ripped 17 | (2/2) Accurately ripped 18 | (2/2) Accurately ripped 19 | (2/2) Accurately ripped 20 | (2/2) Accurately ripped 21 | (2/2) Accurately ripped 22 | (2/2) Accurately ripped
==== Log checksum 99448168E6F5E55FF819B5C3FF6FF672EBA477538158AABF32DEF78AED11E31B ====

CD2

Exact Audio Copy V1.3 from 2. September 2016
EAC extraction logfile from 21. May 2018, 17:33
Holger Speck / Handel - Israel in Egypt (Disc 2)
Used drive : ATAPI iHAS124 F Adapter: 1 ID: 0
Read mode : SecureUtilize accurate stream : YesDefeat audio cache : YesMake use of C2 pointers : No
Read offset correction : 6Overread into Lead-In and Lead-Out : NoFill up missing offset samples with silence : YesDelete leading and trailing silent blocks : NoNull samples used in CRC calculations : YesUsed interface : Native Win32 interface for Win NT & 2000
Used output format : User Defined EncoderSelected bitrate : 1024 kBit/sQuality : HighAdd ID3 tag : NoCommand line compressor : C:\Program Files (x86)\Exact Audio Copy\FLAC\FLAC.EXEAdditional command line options : -8 -V -T "TITLE=%title%" -T "ARTIST=%artist%" -T "ALBUMARTIST=%albumartist%" -T "ALBUM=%albumtitle%" -T "DATE=%year%" -T "TRACKNUMBER=%tracknr%" -T "TRACKTOTAL=%numtracks%" -T "GENRE=%genre%" -T "COMMENT=%comment%" -T "PERFORMER=%albuminterpret%" -T "COMPOSER=%composer%" %source% -o %dest%
TOC of the extracted CD
Track | Start | Length | Start sector | End sector --------------------------------------------------------- 1 | 0:00.00 | 3:30.47 | 0 | 15796 2 | 3:30.47 | 3:34.57 | 15797 | 31903 3 | 7:05.29 | 3:04.03 | 31904 | 45706 4 | 10:09.32 | 5:38.49 | 45707 | 71105 5 | 15:48.06 | 2:08.26 | 71106 | 80731 6 | 17:56.32 | 3:34.59 | 80732 | 96840 7 | 21:31.16 | 2:53.74 | 96841 | 109889 8 | 24:25.15 | 2:17.50 | 109890 | 120214 9 | 26:42.65 | 2:17.25 | 120215 | 130514 10 | 29:00.15 | 1:58.49 | 130515 | 139413 11 | 30:58.64 | 4:12.16 | 139414 | 158329 12 | 35:11.05 | 5:10.39 | 158330 | 181618 13 | 40:21.44 | 3:24.70 | 181619 | 196988 14 | 43:46.39 | 0:40.30 | 196989 | 200018 15 | 44:26.69 | 0:26.03 | 200019 | 201971 16 | 44:52.72 | 0:39.56 | 201972 | 204952 17 | 45:32.53 | 0:24.23 | 204953 | 206775 18 | 45:57.01 | 3:19.25 | 206776 | 221725
Range status and errors
Selected range
Filename C:\EACRip\HANDEL\Handel - Oratorien [Carus, 13CD]\CD6 - Israel in Egypt (II)\Handel - Israel in Egypt (Disc 2) - Holger Speck.wav
Peak level 96.5 % Extraction speed 8.3 X Range quality 100.0 % Test CRC 146EBE4E Copy CRC 146EBE4E Copy OK
No errors occurred
AccurateRip summary
Track 1 accurately ripped (confidence 2) [761CEA65] (AR v2)Track 2 accurately ripped (confidence 2) [C0C3D4CB] (AR v2)Track 3 accurately ripped (confidence 2) [9C3CCB00] (AR v2)Track 4 accurately ripped (confidence 2) [CB2C210B] (AR v2)Track 5 accurately ripped (confidence 2) [C207DE70] (AR v2)Track 6 accurately ripped (confidence 2) [3805A448] (AR v2)Track 7 accurately ripped (confidence 2) [276E7C15] (AR v2)Track 8 accurately ripped (confidence 2) [4EA16AC3] (AR v2)Track 9 accurately ripped (confidence 2) [5BCE3D46] (AR v2)Track 10 accurately ripped (confidence 2) [03559A39] (AR v2)Track 11 accurately ripped (confidence 2) [53336B3F] (AR v2)Track 12 accurately ripped (confidence 2) [483F2304] (AR v2)Track 13 accurately ripped (confidence 2) [DC61EFAD] (AR v2)Track 14 accurately ripped (confidence 2) [4B4D7D38] (AR v2)Track 15 accurately ripped (confidence 2) [A94821AE] (AR v2)Track 16 accurately ripped (confidence 2) [0EFA86F6] (AR v2)Track 17 accurately ripped (confidence 2) [FD273CB0] (AR v2)Track 18 accurately ripped (confidence 2) [5428AC6F] (AR v2)
All tracks accurately ripped
End of status report
---- CUETools DB Plugin V2.1.6
[CTDB TOCID: 5HWRqG7REOc.K3tjp6DXbJD_.n4-] foundSubmit result: 5HWRqG7REOc.K3tjp6DXbJD_.n4- has been confirmedTrack | CTDB Status 1 | (9/9) Accurately ripped 2 | (9/9) Accurately ripped 3 | (9/9) Accurately ripped 4 | (9/9) Accurately ripped 5 | (9/9) Accurately ripped 6 | (9/9) Accurately ripped 7 | (9/9) Accurately ripped 8 | (9/9) Accurately ripped 9 | (9/9) Accurately ripped 10 | (9/9) Accurately ripped 11 | (9/9) Accurately ripped 12 | (9/9) Accurately ripped 13 | (9/9) Accurately ripped 14 | (9/9) Accurately ripped 15 | (9/9) Accurately ripped 16 | (9/9) Accurately ripped 17 | (9/9) Accurately ripped 18 | (9/9) Accurately ripped
==== Log checksum 4B9C3DD13DB2545FB5AD9548F1855C3199C0C73FC6F47731DAE9E02D73967260 ====

Содержание индексной карты (.CUE)

CD1

REM GENRE ChoralREM DATE 2008REM DISCID 41108616REM COMMENT "ExactAudioCopy v1.3"PERFORMER "Vokalensemble Rastatt, Les Favorites, Holger Speck (conductor) / Antonia Bourvé (soprano I), Cornelia Winter (soprano II), Terry Wey (alto I), Michael Hofmeister (alto II), Jan Kobow (tenore), Konstantin Wolff (basso I), Markus Flaig (basso II)"TITLE "Handel - Israel in Egypt (Disc 1)"REM COMPOSER "George Frideric Handel (1685-1759)"FILE "Handel - Israel in Egypt (Disc 1) - Holger Speck.flac" WAVE  TRACK 01 AUDIO    TITLE "Israel in Egypt, oratorio in three parts - PART 1 (The Lamentation of the Israelites for the Death of Joseph). Symphony"    PERFORMER "Les Favorites, Holger Speck"    REM COMPOSER "George Frideric Handel"    FLAGS DCP    INDEX 01 00:00:00  TRACK 02 AUDIO    TITLE "Chorus: The sons of Israel do mourn"    PERFORMER "Vokalensemble Rastatt, Les Favorites, Holger Speck"    REM COMPOSER "George Frideric Handel"    FLAGS DCP    INDEX 01 02:45:12  TRACK 03 AUDIO    TITLE "Quartetto (S I, A II, T, B I): When the ear heard him"    PERFORMER "Les Favorites, Holger Speck & Antonia Bourvé, Michael Hofmeister, Jan Kobow, Konstantin Wolff"    REM COMPOSER "George Frideric Handel"    FLAGS DCP    INDEX 01 12:08:62  TRACK 04 AUDIO    TITLE "Chorus: How is the mighty fall’n"    PERFORMER "Vokalensemble Rastatt, Les Favorites, Holger Speck"    REM COMPOSER "George Frideric Handel"    FLAGS DCP    INDEX 01 15:12:04  TRACK 05 AUDIO    TITLE "Soli (S I, A II, T, B I) and Chorus: The righteous shall be had"    PERFORMER "Vokalensemble Rastatt, Les Favorites, Holger Speck & Antonia Bourvé, Michael Hofmeister, Jan Kobow, Konstantin Wolff"    REM COMPOSER "George Frideric Handel"    FLAGS DCP    INDEX 01 21:56:22  TRACK 06 AUDIO    TITLE "Chorus: Their bodies are buried in peace"    PERFORMER "Vokalensemble Rastatt, Les Favorites, Holger Speck"    REM COMPOSER "George Frideric Handel"    FLAGS DCP    INDEX 01 25:26:74  TRACK 07 AUDIO    TITLE "Chorus: The people will tell of their wisdom"    PERFORMER "Vokalensemble Rastatt, Les Favorites, Holger Speck"    REM COMPOSER "George Frideric Handel"    FLAGS DCP    INDEX 01 29:55:12  TRACK 08 AUDIO    TITLE "Quartetto (S II, A II, T, B II): They shall receive"    PERFORMER "Les Favorites, Holger Speck & Cornelia Winter, Michael Hofmeister, Jan Kobow, Markus Flaig"    REM COMPOSER "George Frideric Handel"    FLAGS DCP    INDEX 01 31:44:22  TRACK 09 AUDIO    TITLE "Chorus: The merciful goodness of the Lord"    PERFORMER "Vokalensemble Rastatt, Les Favorites, Holger Speck"    REM COMPOSER "George Frideric Handel"    FLAGS DCP    INDEX 01 35:10:29  TRACK 10 AUDIO    TITLE "PART 2 (Exodus). Recitative (Tenor): Now there arose a new king"    PERFORMER "Les Favorites, Holger Speck & Jan Kobow"    REM COMPOSER "George Frideric Handel"    FLAGS DCP    INDEX 01 39:06:12  TRACK 11 AUDIO    TITLE "Solo (Alto I) and Chorus: And the children of Israel sigh’d"    PERFORMER "Vokalensemble Rastatt, Les Favorites, Holger Speck & Terry Wey"    REM COMPOSER "George Frideric Handel"    FLAGS DCP    INDEX 01 39:30:19  TRACK 12 AUDIO    TITLE "Recitative (Tenore): Then sent he Moses"    PERFORMER "Les Favorites, Holger Speck & Jan Kobow"    REM COMPOSER "George Frideric Handel"    FLAGS DCP    INDEX 01 43:03:43  TRACK 13 AUDIO    TITLE "Chorus: They loathed to drink of the river"    PERFORMER "Vokalensemble Rastatt, Les Favorites, Holger Speck"    REM COMPOSER "George Frideric Handel"    FLAGS DCP    INDEX 01 43:42:70  TRACK 14 AUDIO    TITLE "Air (Alto I): Their land brought forth frogs"    PERFORMER "Les Favorites, Holger Speck & Terry Wey"    REM COMPOSER "George Frideric Handel"    FLAGS DCP    INDEX 01 46:08:65  TRACK 15 AUDIO    TITLE "Chorus: He spake the word"    PERFORMER "Vokalensemble Rastatt, Les Favorites, Holger Speck"    REM COMPOSER "George Frideric Handel"    FLAGS DCP    INDEX 01 48:28:06  TRACK 16 AUDIO    TITLE "Chorus: He gave them hailstones for rain"    PERFORMER "Vokalensemble Rastatt, Les Favorites, Holger Speck"    REM COMPOSER "George Frideric Handel"    FLAGS DCP    INDEX 01 50:44:65  TRACK 17 AUDIO    TITLE "Chorus: He sent a thick darkness"    PERFORMER "Vokalensemble Rastatt, Les Favorites, Holger Speck"    REM COMPOSER "George Frideric Handel"    FLAGS DCP    INDEX 01 53:01:35  TRACK 18 AUDIO    TITLE "Chorus: He smote all the firstborn of Egypt"    PERFORMER "Vokalensemble Rastatt, Les Favorites, Holger Speck"    REM COMPOSER "George Frideric Handel"    FLAGS DCP    INDEX 01 55:54:33  TRACK 19 AUDIO    TITLE "Chorus: But as for his people"    PERFORMER "Vokalensemble Rastatt, Les Favorites, Holger Speck"    REM COMPOSER "George Frideric Handel"    FLAGS DCP    INDEX 01 58:21:44  TRACK 20 AUDIO    TITLE "Chorus: Egypt was glad when they departed"    PERFORMER "Vokalensemble Rastatt, Les Favorites, Holger Speck"    REM COMPOSER "George Frideric Handel"    FLAGS DCP    INDEX 01 62:26:07  TRACK 21 AUDIO    TITLE "Chorus: He rebuked the Red Sea"    PERFORMER "Vokalensemble Rastatt, Les Favorites, Holger Speck"    REM COMPOSER "George Frideric Handel"    FLAGS DCP    INDEX 01 65:03:65  TRACK 22 AUDIO    TITLE "Chorus: And Israel saw that great work"    PERFORMER "Vokalensemble Rastatt, Les Favorites, Holger Speck"    REM COMPOSER "George Frideric Handel"    FLAGS DCP    INDEX 01 67:45:63

CD2

REM GENRE ChoralREM DATE 2008REM DISCID F90B8C12REM COMMENT "ExactAudioCopy v1.3"PERFORMER "Vokalensemble Rastatt, Les Favorites, Holger Speck (conductor) / Antonia Bourvé (soprano I), Cornelia Winter (soprano II), Terry Wey (alto I), Michael Hofmeister (alto II), Jan Kobow (tenore), Konstantin Wolff (basso I), Markus Flaig (basso II)"TITLE "Handel - Israel in Egypt (Disc 2)"REM COMPOSER "George Frideric Handel (1685-1759)"FILE "Handel - Israel in Egypt (Disc 2) - Holger Speck.flac" WAVE  TRACK 01 AUDIO    TITLE "PART 3 (Moses' Song). Chorus: Moses and the children of Israel"    PERFORMER "Vokalensemble Rastatt, Les Favorites, Holger Speck"    REM COMPOSER "George Frideric Handel"    FLAGS DCP    INDEX 01 00:00:00  TRACK 02 AUDIO    TITLE "Duet (Soprano I e II): The Lord is my strength"    PERFORMER "Les Favorites, Holger Speck & Antonia Bourvé, Cornelia Winter"    REM COMPOSER "George Frideric Handel"    FLAGS DCP    INDEX 01 03:30:47  TRACK 03 AUDIO    TITLE "Chorus: He is my God"    PERFORMER "Vokalensemble Rastatt, Les Favorites, Holger Speck"    REM COMPOSER "George Frideric Handel"    FLAGS DCP    INDEX 01 07:05:29  TRACK 04 AUDIO    TITLE "Duet (Basso I e II): The Lord is a man of war"    PERFORMER "Les Favorites, Holger Speck & Konstantin Wolff, Markus Flaig"    REM COMPOSER "George Frideric Handel"    FLAGS DCP    INDEX 01 10:09:32  TRACK 05 AUDIO    TITLE "Chorus: The depths have cover'd them"    PERFORMER "Vokalensemble Rastatt, Les Favorites, Holger Speck"    REM COMPOSER "George Frideric Handel"    FLAGS DCP    INDEX 01 15:48:06  TRACK 06 AUDIO    TITLE "Chorus: Thy right hand, O Lord"    PERFORMER "Vokalensemble Rastatt, Les Favorites, Holger Speck"    REM COMPOSER "George Frideric Handel"    FLAGS DCP    INDEX 01 17:56:32  TRACK 07 AUDIO    TITLE "Chorus: And with the blast of thy nostrils"    PERFORMER "Vokalensemble Rastatt, Les Favorites, Holger Speck"    REM COMPOSER "George Frideric Handel"    FLAGS DCP    INDEX 01 21:31:16  TRACK 08 AUDIO    TITLE "Air (Tenore): The enemy said, I will pursue"    PERFORMER "Les Favorites, Holger Speck & Jan Kobow"    REM COMPOSER "George Frideric Handel"    FLAGS DCP    INDEX 01 24:25:15  TRACK 09 AUDIO    TITLE "Air (Soprano I): Thou didst blow with the wind"    PERFORMER "Les Favorites, Holger Speck & Antonia Bourvé"    REM COMPOSER "George Frideric Handel"    FLAGS DCP    INDEX 01 26:42:65  TRACK 10 AUDIO    TITLE "Chorus: Who is like unto thee, O Lord"    PERFORMER "Vokalensemble Rastatt, Les Favorites, Holger Speck"    REM COMPOSER "George Frideric Handel"    FLAGS DCP    INDEX 01 29:00:15  TRACK 11 AUDIO    TITLE "Duet (Alto I e Tenore): Thou in thy mercy hast led forth thy people"    PERFORMER "Les Favorites, Holger Speck & Terry Wey, Jan Kobow"    REM COMPOSER "George Frideric Handel"    FLAGS DCP    INDEX 01 30:58:64  TRACK 12 AUDIO    TITLE "Chorus: The people shall hear"    PERFORMER "Vokalensemble Rastatt, Les Favorites, Holger Speck"    REM COMPOSER "George Frideric Handel"    FLAGS DCP    INDEX 01 35:11:05  TRACK 13 AUDIO    TITLE "Air (Alto I): Thou shalt bring them in"    PERFORMER "Les Favorites, Holger Speck & Terry Wey"    REM COMPOSER "George Frideric Handel"    FLAGS DCP    INDEX 01 40:21:44  TRACK 14 AUDIO    TITLE "Chorus: The Lord shall reign for ever and ever"    PERFORMER "Vokalensemble Rastatt, Les Favorites, Holger Speck"    REM COMPOSER "George Frideric Handel"    FLAGS DCP    INDEX 01 43:46:39  TRACK 15 AUDIO    TITLE "Recitative (Tenore): For the horse of Pharaoh"    PERFORMER "Les Favorites, Holger Speck & Jan Kobow"    REM COMPOSER "George Frideric Handel"    FLAGS DCP    INDEX 01 44:26:69  TRACK 16 AUDIO    TITLE "Chorus: The Lord shall reign for ever and ever"    PERFORMER "Vokalensemble Rastatt, Les Favorites, Holger Speck"    REM COMPOSER "George Frideric Handel"    FLAGS DCP    INDEX 01 44:52:72  TRACK 17 AUDIO    TITLE "Recitative (Tenore): And Miriam the prophetess"    PERFORMER "Les Favorites, Holger Speck & Jan Kobow"    REM COMPOSER "George Frideric Handel"    FLAGS DCP    INDEX 01 45:32:53  TRACK 18 AUDIO    TITLE "Solo (Soprano II) and Chorus: Sing ye to the Lord"    PERFORMER "Vokalensemble Rastatt, Les Favorites, Holger Speck & Cornelia Winter"    REM COMPOSER "George Frideric HandelGeorge Frideric Handel"    FLAGS DCP    INDEX 01 45:57:01

Description

Monumental Oratorio: Handel began work on Israel in Egypt just three days after he completed the oratorio Saul. He completed it in less than a month. He first performed the monumental work in April 1739 in the King's Theatre in Haymarket. He continually revised this work until 1758. The version recorded here is in the three-part form as it was originally conceived by Handel. With two mixed choirs, which essentially relate most of the plot, and an unusually large orchestra, this large-proportioned oratorio has a special place in Handel's creative output. In addition to the hand-picked soloists, above all, the Vocalensemble Rastatt and the Barockensemble Les Favorites are outstanding. Under the direction of Holger Speck these musicians portray most impressively the contrast-filled spectrum, ranging from expressive lament to the festive and triumphant jubilation of the Israelites.

Review

AllMusic Review by Stephen Eddins  [-]The history of Israel in Egypt has been somewhat problematic. It was only the second of Handel's English oratorios, and the first in which the choral sections overshadow the solos, a concept that perplexed and displeased the original London audiences in 1739, who were used to their evenings in the theater dominated by virtuosic solos. When Handel revived the work in 1756, he trimmed it considerably, entirely omitting the first section. This recording, with Holger Speck leading Vocalensemble Rastatt and the instrumental ensemble Les Favorites, uses the original complete score, which gives it a clear edge over the many abbreviated performances available of what was once considered the standard performing version.Speck's reading tends to be on the reserved side. The performance is precise and disciplined, straightforward but energetic when called for, although the fieriest choruses lack the passion to really stir the blood. Even so, there's much to be said for performances that can transcend the churchy starchiness that often clings to this repertoire. The singers and players are absolutely in tune and perform with attractive tone that is nicely varied from movement to movement, depending on the character of the music. The seven soloists are very fine without being exceptional, and they blend beautifully in the many small ensembles. This performance makes a solid and appealing introduction to the work for those who don't know it and for anyone who knows it only in its shortened form. The sound of the Carus SACD is clean and vivid; the bass is particularly strong, and the trombones and bassoons dramatically make their presence known.

[doutdess.info].t283304.torrent
Торрент: Зарегистрирован [ 2018-08-09 18:45 ] · D00C63F037EC761E537EEC171B0465E522CE2BFA

23 KB

Статус: проверено
Скачан: 0 раз
Размер: 703 MB
(Classical oratorio) Handel - Israel in Egypt / Гендель - Израиль в Египте [2CD\'s] (Terry Wey, Vokalensemble Rastatt, Les Favorites, Holger Speck) - 2016, FLAC (image+.cue) lossless скачать торрент бесплатно и без регистрации

[Профиль] [ЛС]
Форум Тема Автор Размер
Вокальная музыка в lossless ((classical/operetta)) Schönes bleibt. Unvergessene Tenöre bei WDR 4 / Прекрасное остаётся - 2000, FLAC (image+.cue) lossless Vi$itReal 401 MB
Вокальная и хоровая музыка lossy (Classical (Lieder)) (Lieder) Norman Bailey - Songs of Hugo Wolf - 1979, MP3 (tracks) 320 kbps RelizMAN 120 MB
Концерт для инструмента с оркестром в lossless (Classical ) Top 20 CDs for your Classical Music Collection - ClassicalCDguide.com: 02 - W. A. Mozart - Great Piano Concertos N 20 - 25 (1997) APE (tracks), 450-566 kb/s RelizMAN 582 MB
Концерт для инструмента с оркестром в lossless (Classical ) Top 20 CDs for your Classical Music Collection - ClassicalCDguide.com: 04 - Bach: Die Brandenburgische Konzerte - Orchestra of the Age of Enlightenment 2 CD (1999) APE (tracks), 610-769... RelizMAN 462 MB
Оркестровая музыка в lossless (Classical ) Top 20 CDs for your Classical Music Collection - ClassicalCDguide.com: 06 - Igor Stravinsky; Petroushka, Le Sacre du Printemps - Columbia Symphony Orchestra (Sony 1990) APE (tracks),... Vi$itReal 274 MB
Камерная инструментальная музыка в lossless (Classical ) Top 20 CDs for your Classical Music Collection - ClassicalCDguide.com: 07 - Franz Schubert - \'Trout\' Quintet & \'Death and the Maiden\' - Amadeus Quartet (DG ... Vi$itReal 343 MB
Камерная инструментальная музыка в lossless (Classical ) Top 20 CDs for your Classical Music Collection - ClassicalCDguide.com: 10 - Georges Bizet; Carmen - Sir Thomas Beecham, de Los Angeles, Gedda, Michau, Blanc (EMI 2000) аре (по-треково),... Vi$itReal 745 MB
Камерная инструментальная музыка в lossless (Classical ) Top 20 CDs for your Classical Music Collection - ClassicalCDguide.com: 12 - Франц Шуберт - Симфония No. 3, Unfinished 39; - Carlos Kleiber и Wiener Philharmoniker (DG 1... Vi$itReal 186 MB
Показать сообщения:    

Текущее время: 20-Мар 15:03

Часовой пояс: UTC + 3



Вы не можете начинать темы
Вы не можете отвечать на сообщения
Вы не можете редактировать свои сообщения
Вы не можете удалять свои сообщения
Вы не можете голосовать в опросах
Вы не можете прикреплять файлы к сообщениям
Вы можете скачивать файлы