Ответить на тему
Статистика раздачи [Обновить пиров]
Размер:  789 MB   |    Зарегистрирован:  7 месяцев 9 дней   |    Скачан:  0 раз
Сидов:  595  [  0 KB/s  ]   Личеров:  20  [  0 KB/s  ]  
 
     
 
 
Автор Сообщение

RelizMAN ®

11

Создавать темы 08-Авг-2018 00:25

[Цитировать]

Handel - Messiah / Гендель - Мессия [2CD's]
Жанр: Classical oratorio
Страна-производитель диска: Made in Germany
Год издания диска: оригинал - 2009; переиздание - 2016
Издатель (лейбл): Carus
Номер по каталогу: оригинал - 83.219; переиздание - 83.040
Дата записи: 2008
Аудиокодек: FLAC
Тип рипа: image+.cue
Битрейт аудио: lossless
Продолжительность: 67'10 + 72'16 / 02:19:02
Источник: релизер
сайт-источник/ник/другое: makdelart, подарок; Caterina Sforza - работа с cue, доп. сканы
Наличие сканов в содержимом раздачи: да

Обложка оригинала 2009 года



Треклист

CD1

1. Messiah, oratorio, HWV 56: Part 12. No. 1. Sinfony2. No. 2. Accompagnato. Comfort ye my people3. No. 3. Air. Ev'ry valley shall be exalted4. No. 4. Chorus. And the glory of the Lord5. No. 5. Accompagnato. Thus saith the Lord6. No. 6. Air. But who may abide7. No. 7. Chorus. And He shall purify8. No. 8. Recitative. Behold, a virgin shall conceive / Air and Chorus. O thou that tellest go9. No. 9. Accompagnato. For behold, darkness shall cover the earth10. No. 10. Air. The people that walked in darkness11. No. 11. Chorus. For unto us a child is born12. No. 12. Pifa. Recitative. There were shepherds abiding in the field13. No. 13. Accompagnato. And lo, the angel of the Lord14. No. 14. Recitative. And the angel said unto them / Accompagnato. And suddenly there was wit15. No. 15. Chorus. Glory to God in the highest16. No. 16. Air. Rejoice greatly17. No. 17. Recitative. Then shall the eyes of the blind / Air. He shall feed his flock18. No. 18. Chorus. His yoke is easy
19. Part 2. No. 19. Chorus. Behold the Lamb of God20. No. 20. Recitative. He was despised

CD2

1. Part 2. No. 21. Chorus. Surely He hath borne our griefs2. No. 22. Chorus. And with His stripes we are healed3. No. 23. Chorus. All we, like sheep4. No. 24. Accompagnato. All they that see Him5. No. 25. Chorus. He trusted in God that He would deliver Him6. No. 26. Accompagnato. Thy rebuke hath broken His heart7. No. 27. Arioso. Behold, and see, if there be any sorrow8. No. 28. Accompagnato. He was cut off out of the land of the living9. No. 29. Air. But Thou didst not leave His soul in hell10. No. 30. Chorus. Lift up your heads11. No. 31. Recitative. Unto which of the angels / Chorus. Let all the angels of God worship hi12. No. 32. Air. Thou art gone up on high13. No. 33. Chorus. The Lord gave the word14. No. 34. Air. How beautiful are the feet of them15. No. 35. Chorus. Their sound is gone out16. No. 36. Air. Why do the nations17. No. 37. Chorus. Let us break their bonds asunder18. No. 38. Recitative. He that dwelleth in heaven / Air. Thou shalt break them
19. Part 3. No. 40. Air. I know that my Redeemer liveth20. No. 41. Chorus. Since by man came death21. No. 42. Accompagnato. Behold, I tell you a mystery22. No. 43. Air. The trumpet shall sound23. No. 44. Recitative. Then shall be brought to pass / Duet. O death, where is thy sting?24. No. 45. Chorus. But thanks be to God25. No. 46. Air. If God be for us26. No. 47. Chorus. Worthy is the Lamb that was slain / No. 48. Chorus. Amen

Исполнители

George Frideric Handel (1685-1759)
Messiah HWV 56oratorio in three parts
Carolyn Sampson (soprano)Daniel Taylor (alto)Benjamin Hulett (tenore)Peter Harvey (basso)
Kammerchor StuttgartBarockorchester StuttgartFrieder Bernius (conductor)
Release Date: September 8, 2009 (оригинал)Release Date: 5 Aug. 2016 (переиздание)

Лог создания рипа

CD1

Exact Audio Copy V1.3 from 2. September 2016
EAC extraction logfile from 22. May 2018, 17:35
Frieder Bernius / Handel - Messiah (Disc 1)
Used drive : ATAPI iHAS124 F Adapter: 1 ID: 0
Read mode : SecureUtilize accurate stream : YesDefeat audio cache : YesMake use of C2 pointers : No
Read offset correction : 6Overread into Lead-In and Lead-Out : NoFill up missing offset samples with silence : YesDelete leading and trailing silent blocks : NoNull samples used in CRC calculations : YesUsed interface : Native Win32 interface for Win NT & 2000
Used output format : User Defined EncoderSelected bitrate : 1024 kBit/sQuality : HighAdd ID3 tag : NoCommand line compressor : C:\Program Files (x86)\Exact Audio Copy\FLAC\FLAC.EXEAdditional command line options : -8 -V -T "TITLE=%title%" -T "ARTIST=%artist%" -T "ALBUMARTIST=%albumartist%" -T "ALBUM=%albumtitle%" -T "DATE=%year%" -T "TRACKNUMBER=%tracknr%" -T "TRACKTOTAL=%numtracks%" -T "GENRE=%genre%" -T "COMMENT=%comment%" -T "PERFORMER=%albuminterpret%" -T "COMPOSER=%composer%" %source% -o %dest%
TOC of the extracted CD
Track | Start | Length | Start sector | End sector --------------------------------------------------------- 1 | 0:00.00 | 3:24.21 | 0 | 15320 2 | 3:24.21 | 2:54.46 | 15321 | 28416 3 | 6:18.67 | 3:21.60 | 28417 | 43551 4 | 9:40.52 | 2:38.61 | 43552 | 55462 5 | 12:19.38 | 1:26.51 | 55463 | 61963 6 | 13:46.14 | 4:25.34 | 61964 | 81872 7 | 18:11.48 | 2:21.72 | 81873 | 92519 8 | 20:33.45 | 5:55.26 | 92520 | 119170 9 | 26:28.71 | 2:02.14 | 119171 | 128334 10 | 28:31.10 | 4:39.13 | 128335 | 149272 11 | 33:10.23 | 3:53.63 | 149273 | 166810 12 | 37:04.11 | 2:28.21 | 166811 | 177931 13 | 39:32.32 | 0:22.18 | 177932 | 179599 14 | 39:54.50 | 0:49.23 | 179600 | 183297 15 | 40:43.73 | 1:49.73 | 183298 | 191545 16 | 42:33.71 | 3:58.23 | 191546 | 209418 17 | 46:32.19 | 5:19.56 | 209419 | 233399 18 | 51:52.00 | 2:19.04 | 233400 | 243828 19 | 54:11.04 | 2:42.47 | 243829 | 256025 20 | 56:53.51 | 10:17.05 | 256026 | 302305
Range status and errors
Selected range
Filename C:\EACRip\HANDEL\Handel - Oratorien [Carus, 13CD]\CD9 - Messiah (I)\Handel - Messiah (Disc 1) - Frieder Bernius.wav
Peak level 93.9 % Extraction speed 9.5 X Range quality 100.0 % Test CRC BB87AD70 Copy CRC BB87AD70 Copy OK
No errors occurred
AccurateRip summary
Track 1 accurately ripped (confidence 2) [4148FEB8] (AR v2)Track 2 accurately ripped (confidence 2) [8AEA6931] (AR v2)Track 3 accurately ripped (confidence 2) [20C32664] (AR v2)Track 4 accurately ripped (confidence 2) [C76B9F41] (AR v2)Track 5 accurately ripped (confidence 2) [8F89E4DD] (AR v2)Track 6 accurately ripped (confidence 2) [098B1619] (AR v2)Track 7 accurately ripped (confidence 2) [874AB775] (AR v2)Track 8 accurately ripped (confidence 2) [B565D783] (AR v2)Track 9 accurately ripped (confidence 2) [406B27BC] (AR v2)Track 10 accurately ripped (confidence 2) [837A7729] (AR v2)Track 11 accurately ripped (confidence 2) [15CB1D37] (AR v2)Track 12 accurately ripped (confidence 2) [225874D4] (AR v2)Track 13 accurately ripped (confidence 2) [E99CD54C] (AR v2)Track 14 accurately ripped (confidence 2) [E904BA79] (AR v2)Track 15 accurately ripped (confidence 2) [948B5FA2] (AR v2)Track 16 accurately ripped (confidence 2) [E6653ED2] (AR v2)Track 17 accurately ripped (confidence 2) [43479802] (AR v2)Track 18 accurately ripped (confidence 2) [2CAD0524] (AR v2)Track 19 accurately ripped (confidence 2) [F8D2FD31] (AR v2)Track 20 accurately ripped (confidence 2) [44FAFBEE] (AR v2)
All tracks accurately ripped
End of status report
---- CUETools DB Plugin V2.1.6
[CTDB TOCID: fRXjGZNEIaVYFV2uT1oRKRAntQk-] foundSubmit result: fRXjGZNEIaVYFV2uT1oRKRAntQk- has been confirmedTrack | CTDB Status 1 | (10/10) Accurately ripped 2 | (10/10) Accurately ripped 3 | (10/10) Accurately ripped 4 | (10/10) Accurately ripped 5 | (10/10) Accurately ripped 6 | (10/10) Accurately ripped 7 | (10/10) Accurately ripped 8 | (10/10) Accurately ripped 9 | (10/10) Accurately ripped 10 | (10/10) Accurately ripped 11 | (10/10) Accurately ripped 12 | (10/10) Accurately ripped 13 | (10/10) Accurately ripped 14 | (10/10) Accurately ripped 15 | (10/10) Accurately ripped 16 | (10/10) Accurately ripped 17 | (10/10) Accurately ripped 18 | (10/10) Accurately ripped 19 | (10/10) Accurately ripped 20 | (10/10) Accurately ripped
==== Log checksum D8D8D926E21CA5D8F936AF24EB0823744180F357AE6030411CB2485BD876CB5C ====

CD2

Exact Audio Copy V1.3 from 2. September 2016
EAC extraction logfile from 22. May 2018, 18:16
Frieder Bernius / Handel - Messiah (Disc 2)
Used drive : ATAPI iHAS124 F Adapter: 1 ID: 0
Read mode : SecureUtilize accurate stream : YesDefeat audio cache : YesMake use of C2 pointers : No
Read offset correction : 6Overread into Lead-In and Lead-Out : NoFill up missing offset samples with silence : YesDelete leading and trailing silent blocks : NoNull samples used in CRC calculations : YesUsed interface : Native Win32 interface for Win NT & 2000
Used output format : User Defined EncoderSelected bitrate : 1024 kBit/sQuality : HighAdd ID3 tag : NoCommand line compressor : C:\Program Files (x86)\Exact Audio Copy\FLAC\FLAC.EXEAdditional command line options : -8 -V -T "TITLE=%title%" -T "ARTIST=%artist%" -T "ALBUMARTIST=%albumartist%" -T "ALBUM=%albumtitle%" -T "DATE=%year%" -T "TRACKNUMBER=%tracknr%" -T "TRACKTOTAL=%numtracks%" -T "GENRE=%genre%" -T "COMMENT=%comment%" -T "PERFORMER=%albuminterpret%" -T "COMPOSER=%composer%" %source% -o %dest%
TOC of the extracted CD
Track | Start | Length | Start sector | End sector --------------------------------------------------------- 1 | 0:00.00 | 1:45.73 | 0 | 7947 2 | 1:45.73 | 1:55.28 | 7948 | 16600 3 | 3:41.26 | 3:26.69 | 16601 | 32119 4 | 7:08.20 | 0:42.66 | 32120 | 35335 5 | 7:51.11 | 2:22.60 | 35336 | 46045 6 | 10:13.71 | 1:43.32 | 46046 | 53802 7 | 11:57.28 | 1:22.50 | 53803 | 60002 8 | 13:20.03 | 0:14.00 | 60003 | 61052 9 | 13:34.03 | 2:22.61 | 61053 | 71763 10 | 15:56.64 | 3:02.63 | 71764 | 85476 11 | 18:59.52 | 1:44.73 | 85477 | 93349 12 | 20:44.50 | 3:17.08 | 93350 | 108132 13 | 24:01.58 | 1:01.56 | 108133 | 112763 14 | 25:03.39 | 2:01.68 | 112764 | 121906 15 | 27:05.32 | 1:17.58 | 121907 | 127739 16 | 28:23.15 | 2:46.06 | 127740 | 140195 17 | 31:09.21 | 1:46.20 | 140196 | 148165 18 | 32:55.41 | 2:09.42 | 148166 | 157882 19 | 35:05.08 | 3:48.36 | 157883 | 175018 20 | 38:53.44 | 5:54.47 | 175019 | 201615 21 | 44:48.16 | 2:11.14 | 201616 | 211454 22 | 46:59.30 | 0:38.06 | 211455 | 214310 23 | 47:37.36 | 9:31.35 | 214311 | 257170 24 | 57:08.71 | 1:16.28 | 257171 | 262898 25 | 58:25.24 | 2:00.18 | 262899 | 271916 26 | 60:25.42 | 4:59.39 | 271917 | 294380 27 | 65:25.06 | 6:51.65 | 294381 | 325270
Range status and errors
Selected range
Filename C:\EACRip\HANDEL\Handel - Oratorien [Carus, 13CD]\CD10 - Messiah (II)\Handel - Messiah (Disc 2) - Frieder Bernius.wav
Peak level 98.2 % Extraction speed 9.8 X Range quality 100.0 % Test CRC 3C6EFF21 Copy CRC 3C6EFF21 Copy OK
No errors occurred
AccurateRip summary
Track 1 accurately ripped (confidence 2) [8E1D86EB] (AR v2)Track 2 accurately ripped (confidence 2) [C21BB53F] (AR v2)Track 3 accurately ripped (confidence 2) [056E212D] (AR v2)Track 4 accurately ripped (confidence 2) [85E0B3B7] (AR v2)Track 5 accurately ripped (confidence 2) [623FE034] (AR v2)Track 6 accurately ripped (confidence 2) [56AA568E] (AR v2)Track 7 accurately ripped (confidence 2) [388133CF] (AR v2)Track 8 accurately ripped (confidence 2) [44184125] (AR v2)Track 9 accurately ripped (confidence 2) [502CAF81] (AR v2)Track 10 accurately ripped (confidence 2) [52B915D9] (AR v2)Track 11 accurately ripped (confidence 2) [2679524B] (AR v2)Track 12 accurately ripped (confidence 2) [458634A3] (AR v2)Track 13 accurately ripped (confidence 2) [21D63A5A] (AR v2)Track 14 accurately ripped (confidence 2) [C83D2C23] (AR v2)Track 15 accurately ripped (confidence 2) [8C747860] (AR v2)Track 16 accurately ripped (confidence 2) [64EB31CD] (AR v2)Track 17 accurately ripped (confidence 2) [FF35E3C4] (AR v2)Track 18 accurately ripped (confidence 2) [AB6C7154] (AR v2)Track 19 accurately ripped (confidence 2) [FC63E9DD] (AR v2)Track 20 accurately ripped (confidence 2) [1FC9EE59] (AR v2)Track 21 accurately ripped (confidence 2) [C49C2039] (AR v2)Track 22 accurately ripped (confidence 2) [3E075E36] (AR v2)Track 23 accurately ripped (confidence 2) [E9B6C809] (AR v2)Track 24 accurately ripped (confidence 2) [FF6CE621] (AR v2)Track 25 accurately ripped (confidence 2) [318F3698] (AR v2)Track 26 accurately ripped (confidence 2) [533BA36D] (AR v2)Track 27 accurately ripped (confidence 2) [9AFA5C38] (AR v2)
All tracks accurately ripped
End of status report
---- CUETools DB Plugin V2.1.6
[CTDB TOCID: kdtHNGTd2Gc0seMiaqhLT8_zWq8-] foundSubmit result: kdtHNGTd2Gc0seMiaqhLT8_zWq8- has been confirmedTrack | CTDB Status 1 | (10/10) Accurately ripped 2 | (10/10) Accurately ripped 3 | (10/10) Accurately ripped 4 | (10/10) Accurately ripped 5 | (10/10) Accurately ripped 6 | (10/10) Accurately ripped 7 | (10/10) Accurately ripped 8 | (10/10) Accurately ripped 9 | (10/10) Accurately ripped 10 | (10/10) Accurately ripped 11 | (10/10) Accurately ripped 12 | (10/10) Accurately ripped 13 | (10/10) Accurately ripped 14 | (10/10) Accurately ripped 15 | (10/10) Accurately ripped 16 | (10/10) Accurately ripped 17 | (10/10) Accurately ripped 18 | (10/10) Accurately ripped 19 | (10/10) Accurately ripped 20 | (10/10) Accurately ripped 21 | (10/10) Accurately ripped 22 | (10/10) Accurately ripped 23 | (10/10) Accurately ripped 24 | (10/10) Accurately ripped 25 | (10/10) Accurately ripped 26 | (10/10) Accurately ripped 27 | (10/10) Accurately ripped
==== Log checksum 9F75773C48E410533C84DDCA1DE94CA44D40175BAD7340A205934D25221EADFC ====

Содержание индексной карты (.CUE)

CD1

REM GENRE ChoralREM DATE 2009REM DISCID 140FBE14REM COMMENT "ExactAudioCopy v1.3"PERFORMER "Kammerchor Stuttgart, Barockorchester Stuttgart, Frieder Bernius (conductor) / Carolyn Sampson (soprano), Daniel Taylor (alto), Benjamin Hulett (tenore), Peter Harvey (basso)"TITLE "Handel - Messiah (Disc 1)"REM COMPOSER "George Frideric Handel (1685-1759)"FILE "Handel - Messiah (Disc 1) - Frieder Bernius.flac" WAVE  TRACK 01 AUDIO    TITLE "Messiah HWV 56, oratorio in three parts - PART THE FIRST. No. 1. Sinfony"    PERFORMER "Barockorchester Stuttgart, Frieder Bernius"    REM COMPOSER "George Frideric Handel"    FLAGS DCP    INDEX 01 00:00:00  TRACK 02 AUDIO    TITLE "No. 2. Accompagnato (Tenore): Comfort ye my people"    PERFORMER "Barockorchester Stuttgart, Frieder Bernius & Benjamin Hulett"    REM COMPOSER "George Frideric Handel"    FLAGS DCP    INDEX 01 03:24:21  TRACK 03 AUDIO    TITLE "No. 3. Air (Tenore): Ev’ry valley shall be exalted"    PERFORMER "Barockorchester Stuttgart, Frieder Bernius & Benjamin Hulett"    REM COMPOSER "George Frideric Handel"    FLAGS DCP    INDEX 01 06:18:67  TRACK 04 AUDIO    TITLE "No. 4. Chorus: And the glory of the Lord"    PERFORMER "Kammerchor Stuttgart, Barockorchester Stuttgart, Frieder Bernius"    REM COMPOSER "George Frideric Handel"    FLAGS DCP    INDEX 01 09:40:52  TRACK 05 AUDIO    TITLE "No. 5. Accompagnato (Basso): Thus saith the Lord"    PERFORMER "Barockorchester Stuttgart, Frieder Bernius & Peter Harvey"    REM COMPOSER "George Frideric Handel"    FLAGS DCP    INDEX 01 12:19:38  TRACK 06 AUDIO    TITLE "No. 6. Air (Alto): But who may abide"    PERFORMER "Barockorchester Stuttgart, Frieder Bernius & Daniel Taylor"    REM COMPOSER "George Frideric Handel"    FLAGS DCP    INDEX 01 13:46:14  TRACK 07 AUDIO    TITLE "No. 7. Chorus: And He shall purify"    PERFORMER "Kammerchor Stuttgart, Barockorchester Stuttgart, Frieder Bernius"    REM COMPOSER "George Frideric Handel"    FLAGS DCP    INDEX 01 18:11:48  TRACK 08 AUDIO    TITLE "No. 8. Recitative & Air (Alto) and Chorus: Behold, a virgin shall conceive ... O thou that tellest good tidings to Zion"    PERFORMER "Barockorchester Stuttgart, Frieder Bernius & Daniel Taylor"    REM COMPOSER "George Frideric Handel"    FLAGS DCP    INDEX 01 20:33:45  TRACK 09 AUDIO    TITLE "No. 9. Accompagnato (Basso): For behold, darkness shall cover the earth"    PERFORMER "Barockorchester Stuttgart, Frieder Bernius & Peter Harvey"    REM COMPOSER "George Frideric Handel"    FLAGS DCP    INDEX 01 26:28:71  TRACK 10 AUDIO    TITLE "No. 10. Air (Basso): The people that walked in darkness"    PERFORMER "Barockorchester Stuttgart, Frieder Bernius & Peter Harvey"    REM COMPOSER "George Frideric Handel"    FLAGS DCP    INDEX 01 28:31:10  TRACK 11 AUDIO    TITLE "No. 11. Chorus: For unto us a child is born"    PERFORMER "Kammerchor Stuttgart, Barockorchester Stuttgart, Frieder Bernius"    REM COMPOSER "George Frideric Handel"    FLAGS DCP    INDEX 01 33:10:23  TRACK 12 AUDIO    TITLE "No. 12. Pifa (Sinfonia pastorale). Recitative (Soprano): There were shepherds"    PERFORMER "Barockorchester Stuttgart, Frieder Bernius & Carolyn Sampson"    REM COMPOSER "George Frideric Handel"    FLAGS DCP    INDEX 01 37:04:11  TRACK 13 AUDIO    TITLE "No. 13a. Accompagnato (Soprano): And lo, the angel of the Lord"    PERFORMER "Barockorchester Stuttgart, Frieder Bernius & Carolyn Sampson"    REM COMPOSER "George Frideric Handel"    FLAGS DCP    INDEX 01 39:32:32  TRACK 14 AUDIO    TITLE "Recitative (Soprano): And the angel said unto them / No. 14. Accompagnato (Soprano): And suddenly there was wit"    PERFORMER "Barockorchester Stuttgart, Frieder Bernius & Carolyn Sampson"    REM COMPOSER "George Frideric Handel"    FLAGS DCP    INDEX 01 39:54:50  TRACK 15 AUDIO    TITLE "No. 15. Chorus: Glory to God in the highest"    PERFORMER "Kammerchor Stuttgart, Barockorchester Stuttgart, Frieder Bernius"    REM COMPOSER "George Frideric Handel"    FLAGS DCP    INDEX 01 40:43:73  TRACK 16 AUDIO    TITLE "No. 16b. Air (Soprano): Rejoice greatly"    PERFORMER "Barockorchester Stuttgart, Frieder Bernius & Carolyn Sampson"    REM COMPOSER "George Frideric Handel"    FLAGS DCP    INDEX 01 42:33:71  TRACK 17 AUDIO    TITLE "Recitative (Alto): Then shall the eyes of the blind / No. 17c. Air (Soprano & Alto): He shall feed his flock"    PERFORMER "Barockorchester Stuttgart, Frieder Bernius & Daniel Taylor"    REM COMPOSER "George Frideric Handel"    FLAGS DCP    INDEX 01 46:32:19  TRACK 18 AUDIO    TITLE "No. 18. Chorus: His yoke is easy"    PERFORMER "Kammerchor Stuttgart, Barockorchester Stuttgart, Frieder Bernius"    REM COMPOSER "George Frideric Handel"    FLAGS DCP    INDEX 01 51:52:00  TRACK 19 AUDIO    TITLE "PART THE SECOND. No. 19. Chorus: Behold the Lamb of God"    PERFORMER "Kammerchor Stuttgart, Barockorchester Stuttgart, Frieder Bernius"    REM COMPOSER "George Frideric Handel"    FLAGS DCP    INDEX 00 54:03:14    INDEX 01 54:11:04  TRACK 20 AUDIO    TITLE "No. 20. Air (Alto): He was despised"    PERFORMER "Barockorchester Stuttgart, Frieder Bernius & Daniel Taylor"    REM COMPOSER "George Frideric Handel"    FLAGS DCP    INDEX 01 56:53:51

CD2

REM GENRE ChoralREM DATE 2009REM DISCID 7110F01BREM COMMENT "ExactAudioCopy v1.3"PERFORMER "Kammerchor Stuttgart, Barockorchester Stuttgart, Frieder Bernius (conductor) / Carolyn Sampson (soprano), Daniel Taylor (alto), Benjamin Hulett (tenore), Peter Harvey (basso)"TITLE "Handel - Messiah (Disc 2)"REM COMPOSER "George Frideric Handel (1685-1759)"FILE "Handel - Messiah (Disc 2) - Frieder Bernius.flac" WAVE  TRACK 01 AUDIO    TITLE "No. 21. Chorus: Surely He hath borne our griefs"    PERFORMER "Kammerchor Stuttgart, Barockorchester Stuttgart, Frieder Bernius"    REM COMPOSER "George Frideric Handel"    FLAGS DCP    INDEX 01 00:00:00  TRACK 02 AUDIO    TITLE "No. 22. Chorus: And with His stripes we are healed"    PERFORMER "Kammerchor Stuttgart, Barockorchester Stuttgart, Frieder Bernius"    REM COMPOSER "George Frideric Handel"    FLAGS DCP    INDEX 01 01:45:73  TRACK 03 AUDIO    TITLE "No. 23. Chorus: All we, like sheep"    PERFORMER "Kammerchor Stuttgart, Barockorchester Stuttgart, Frieder Bernius"    REM COMPOSER "George Frideric Handel"    FLAGS DCP    INDEX 01 03:41:26  TRACK 04 AUDIO    TITLE "No. 24. Accompagnato (Tenore): All they that see Him"    PERFORMER "Barockorchester Stuttgart, Frieder Bernius & Benjamin Hulett"    REM COMPOSER "George Frideric Handel"    FLAGS DCP    INDEX 01 07:08:20  TRACK 05 AUDIO    TITLE "No. 25. Chorus: He trusted in God that He would deliver Him"    PERFORMER "Kammerchor Stuttgart, Barockorchester Stuttgart, Frieder Bernius"    REM COMPOSER "George Frideric Handel"    FLAGS DCP    INDEX 01 07:51:11  TRACK 06 AUDIO    TITLE "No. 26. Accompagnato (Tenore): Thy rebuke hath broken His heart"    PERFORMER "Barockorchester Stuttgart, Frieder Bernius & Benjamin Hulett"    REM COMPOSER "George Frideric Handel"    FLAGS DCP    INDEX 01 10:13:71  TRACK 07 AUDIO    TITLE "No. 27. Arioso (Tenore): Behold, and see, if there be any sorrow"    PERFORMER "Barockorchester Stuttgart, Frieder Bernius & Benjamin Hulett"    REM COMPOSER "George Frideric Handel"    FLAGS DCP    INDEX 01 11:57:28  TRACK 08 AUDIO    TITLE "No. 28. Accompagnato (Tenore): He was cut off out of the land of the living"    PERFORMER "Barockorchester Stuttgart, Frieder Bernius & Benjamin Hulett"    REM COMPOSER "George Frideric Handel"    FLAGS DCP    INDEX 01 13:20:03  TRACK 09 AUDIO    TITLE "No. 29. Air (Tenore): But Thou didst not leave His soul in hell"    PERFORMER "Barockorchester Stuttgart, Frieder Bernius & Benjamin Hulett"    REM COMPOSER "George Frideric Handel"    FLAGS DCP    INDEX 01 13:34:03  TRACK 10 AUDIO    TITLE "No. 30. Chorus: Lift up your heads"    PERFORMER "Kammerchor Stuttgart, Barockorchester Stuttgart, Frieder Bernius"    REM COMPOSER "George Frideric Handel"    FLAGS DCP    INDEX 01 15:56:64  TRACK 11 AUDIO    TITLE "Recitative (Tenore): Unto which of the angels / No. 31. Chorus:  Let all the angels of God worship Him"    PERFORMER "Barockorchester Stuttgart, Frieder Bernius & Benjamin Hulett"    REM COMPOSER "George Frideric Handel"    FLAGS DCP    INDEX 01 18:59:52  TRACK 12 AUDIO    TITLE "No. 32b. Air (Alto): Thou art gone up on high"    PERFORMER "Barockorchester Stuttgart, Frieder Bernius & Daniel Taylor"    REM COMPOSER "George Frideric Handel"    FLAGS DCP    INDEX 01 20:44:50  TRACK 13 AUDIO    TITLE "No. 33. Chorus: The Lord gave the word"    PERFORMER "Kammerchor Stuttgart, Barockorchester Stuttgart, Frieder Bernius"    REM COMPOSER "George Frideric Handel"    FLAGS DCP    INDEX 01 24:01:58  TRACK 14 AUDIO    TITLE "No. 34c. Air (Soprano): How beautiful are the feet of them"    PERFORMER "Barockorchester Stuttgart, Frieder Bernius & Carolyn Sampson"    REM COMPOSER "George Frideric Handel"    FLAGS DCP    INDEX 01 25:03:39  TRACK 15 AUDIO    TITLE "No. 35b. Chorus: Their sound is gone out"    PERFORMER "Kammerchor Stuttgart, Barockorchester Stuttgart, Frieder Bernius"    REM COMPOSER "George Frideric Handel"    FLAGS DCP    INDEX 01 27:05:32  TRACK 16 AUDIO    TITLE "No. 36b. Air (Basso): Why do the nations"    PERFORMER "Barockorchester Stuttgart, Frieder Bernius & Peter Harvey"    REM COMPOSER "George Frideric Handel"    FLAGS DCP    INDEX 01 28:23:15  TRACK 17 AUDIO    TITLE "No. 37. Chorus: Let us break their bonds asunder"    PERFORMER "Kammerchor Stuttgart, Barockorchester Stuttgart, Frieder Bernius"    REM COMPOSER "George Frideric Handel"    FLAGS DCP    INDEX 01 31:09:21  TRACK 18 AUDIO    TITLE "Recitative (Tenore): He that dwelleth in heaven / No. 38a. Air (Tenore): Thou shalt break them"    PERFORMER "Barockorchester Stuttgart, Frieder Bernius & Benjamin Hulett"    REM COMPOSER "George Frideric Handel"    FLAGS DCP    INDEX 01 32:55:41  TRACK 19 AUDIO    TITLE "No. 39. Chorus: Halleluja, for the Lord God"    PERFORMER "Kammerchor Stuttgart, Barockorchester Stuttgart, Frieder Bernius"    REM COMPOSER "George Frideric Handel"    FLAGS DCP    INDEX 01 35:05:08  TRACK 20 AUDIO    TITLE "PART THE THIRD. No. 40. Air (Soprano): I know that my Redeemer liveth"    PERFORMER "Barockorchester Stuttgart, Frieder Bernius & Carolyn Sampson"    REM COMPOSER "George Frideric Handel"    FLAGS DCP    INDEX 00 38:42:52    INDEX 01 38:53:44  TRACK 21 AUDIO    TITLE "No. 41. Chorus: Since by man came death"    PERFORMER "Kammerchor Stuttgart, Barockorchester Stuttgart, Frieder Bernius"    REM COMPOSER "George Frideric Handel"    FLAGS DCP    INDEX 01 44:48:16  TRACK 22 AUDIO    TITLE "No. 42. Accompagnato (Basso): Behold, I tell you a mystery"    PERFORMER "Barockorchester Stuttgart, Frieder Bernius & Peter Harvey"    REM COMPOSER "George Frideric Handel"    FLAGS DCP    INDEX 01 46:59:30  TRACK 23 AUDIO    TITLE "No. 43. Air (Basso): The trumpet shall sound"    PERFORMER "Barockorchester Stuttgart, Frieder Bernius & Peter Harvey"    REM COMPOSER "George Frideric Handel"    FLAGS DCP    INDEX 01 47:37:36  TRACK 24 AUDIO    TITLE "Recitative (Alto): Then shall be brought to pass / No. 44a. Duet (Alto & Tenore): O death, where is thy sting?"    PERFORMER "Barockorchester Stuttgart, Frieder Bernius & Daniel Taylor, Benjamin Hulett"    REM COMPOSER "George Frideric Handel"    FLAGS DCP    INDEX 01 57:08:71  TRACK 25 AUDIO    TITLE "No. 45. Chorus: But thanks be to God"    PERFORMER "Kammerchor Stuttgart, Barockorchester Stuttgart, Frieder Bernius"    REM COMPOSER "George Frideric Handel"    FLAGS DCP    INDEX 01 58:25:24  TRACK 26 AUDIO    TITLE "No. 46a. Air (Soprano): If God be for us"    PERFORMER "Barockorchester Stuttgart, Frieder Bernius & Carolyn Sampson"    REM COMPOSER "George Frideric Handel"    FLAGS DCP    INDEX 01 60:25:42  TRACK 27 AUDIO    TITLE "No. 47. Chorus: Worthy is the Lamb that was slain / No. 48. Chorus: Amen"    PERFORMER "Kammerchor Stuttgart, Barockorchester Stuttgart, Frieder Bernius"    REM COMPOSER "George Frideric Handel"    FLAGS DCP    INDEX 01 65:25:06

Доп. информация

AllMusic Review by James Leonard  [-]Anyone who can never get enough of Handel's Messiah should be interested in this first-class performance and first-rate recording by Frieder Bernius, with the Kammerchor Stuttgart and Barockorchester Stuttgart, recorded in super audio digital sound for Carus in 2008. Bernius knows Messiah backwards, forwards, inside-out, and sideways, and his tempos, balances, and interpretation can no more be faulted for technical imperfections any more than his interpretations can be regarded as outside the accepted norms of period performance. The chorus and orchestra know the work well, and the performances are as note-perfect as they are deeply felt. The soloists, too, turn in exemplary performances, and soprano Carolyn Sampson is especially affecting. Listeners may not find new insights here -- Bernius' reading does not stray from the standard celebratory take on the work; nor do his performers top the great performers of the past -- Elisabeth Schwarzkopf's star turn in Otto Klemperer's recording still cannot be beat -- but listeners are not likely to go away disappointed, especially in Carus' "you are there" super audio sound.

[doutdess.info].t282918.torrent
Торрент: Зарегистрирован [ 2018-08-08 00:25 ] · 21B5772D799FEF0E6676A9640370323D64CB5678

24 KB

Статус: проверено
Скачан: 0 раз
Размер: 789 MB
(Classical oratorio) Handel - Messiah / Гендель - Мессия [2CD\'s] (Carolyn Sampson, Peter Harvey, Kammerchor Stuttgart, Barockorchester Stuttgart, Frieder Bernius) - 2016, FLAC (image+.cue) lossless скачать торрент бесплатно и без регистрации

[Профиль] [ЛС]
Форум Тема Автор Размер
Вокальная музыка в lossless ((classical/operetta)) Schönes bleibt. Unvergessene Tenöre bei WDR 4 / Прекрасное остаётся - 2000, FLAC (image+.cue) lossless Vi$itReal 401 MB
Вокальная и хоровая музыка lossy (Classical (Lieder)) (Lieder) Norman Bailey - Songs of Hugo Wolf - 1979, MP3 (tracks) 320 kbps RelizMAN 120 MB
Концерт для инструмента с оркестром в lossless (Classical ) Top 20 CDs for your Classical Music Collection - ClassicalCDguide.com: 02 - W. A. Mozart - Great Piano Concertos N 20 - 25 (1997) APE (tracks), 450-566 kb/s RelizMAN 582 MB
Концерт для инструмента с оркестром в lossless (Classical ) Top 20 CDs for your Classical Music Collection - ClassicalCDguide.com: 04 - Bach: Die Brandenburgische Konzerte - Orchestra of the Age of Enlightenment 2 CD (1999) APE (tracks), 610-769... RelizMAN 462 MB
Оркестровая музыка в lossless (Classical ) Top 20 CDs for your Classical Music Collection - ClassicalCDguide.com: 06 - Igor Stravinsky; Petroushka, Le Sacre du Printemps - Columbia Symphony Orchestra (Sony 1990) APE (tracks),... Vi$itReal 274 MB
Камерная инструментальная музыка в lossless (Classical ) Top 20 CDs for your Classical Music Collection - ClassicalCDguide.com: 07 - Franz Schubert - \'Trout\' Quintet & \'Death and the Maiden\' - Amadeus Quartet (DG ... Vi$itReal 343 MB
Камерная инструментальная музыка в lossless (Classical ) Top 20 CDs for your Classical Music Collection - ClassicalCDguide.com: 10 - Georges Bizet; Carmen - Sir Thomas Beecham, de Los Angeles, Gedda, Michau, Blanc (EMI 2000) аре (по-треково),... Vi$itReal 745 MB
Камерная инструментальная музыка в lossless (Classical ) Top 20 CDs for your Classical Music Collection - ClassicalCDguide.com: 12 - Франц Шуберт - Симфония No. 3, Unfinished 39; - Carlos Kleiber и Wiener Philharmoniker (DG 1... Vi$itReal 186 MB
Показать сообщения:    

Текущее время: 18-Мар 20:38

Часовой пояс: UTC + 3



Вы не можете начинать темы
Вы не можете отвечать на сообщения
Вы не можете редактировать свои сообщения
Вы не можете удалять свои сообщения
Вы не можете голосовать в опросах
Вы не можете прикреплять файлы к сообщениям
Вы можете скачивать файлы