Ответить на тему
Статистика раздачи [Обновить пиров]
Размер:  890 MB   |    Зарегистрирован:  7 месяцев 12 дней   |    Скачан:  0 раз
Сидов:  55  [  0 KB/s  ]   Личеров:  23  [  0 KB/s  ]  
 
     
 
 
Автор Сообщение

RelizMAN ®

11

Создавать темы 07-Авг-2018 23:20

[Цитировать]

Handel - Solomon (Salomo) / Гендель - Соломон
Жанр: Classical oratorio
Страна-производитель диска: Made in Germany
Год издания диска: оригинал - 2007; переиздание - 2016
Издатель (лейбл): Carus
Номер по каталогу: оригинал - 83.242; переиздание - 83.040
Дата записи: 2007
Аудиокодек: FLAC
Тип рипа: image+.cue
Битрейт аудио: lossless
Продолжительность: 60:17 + 49:15 + 47:06 / 02:36:03
Источник: релизер
сайт-источник/ник/другое: makdelart, подарок; Caterina Sforza - работа с cue
Наличие сканов в содержимом раздачи: да

Обложка оригинала 2007 года



Треклист

CD1

1 Ouverture 06:592 Your harps and cymbals 03:453 Air (Levite): Praise ye the Lord 04:494 With pious heart 04:315 Air (Solomon): Almighty pow'r 02:406 Recitative (Zadok): Imperial Solomon 00:567 Air (Zadok): Sacred raptures cheer my breast 04:358 Throughout the land 02:499 Recitative (Solomon): Bless'd be the Lord 00:2010 Air (Solomon): What though I trace 06:3111 Recitative (Solomon): And see my queen 00:3712 Air (Queen): Bless'd the day 05:1813 Recitative (Solomon): Thou fair inhabitant 00:3514 Duet (Queen, Solomon): Welcome 03:0215 Recitative (Zadok): Vain are the transient beauties 00:4416 Air (Zodak): Indulge thy faith 02:5917 Recitative (Solomon): My blooming fair 00:0918 Air (Solomon): Haste, haste 03:1119 Recitative (Queen): When thou art absent 00:1320 Air (Queen): With thee th'unshelter'd moor 02:0221 Recitative (Zadok): Search round the world 00:1922 May no rash intruder 03:13

CD2

1 From the censer 05:112 Recitative (Solomon): Prais'd be the Lord 00:563 Air (Solomon): When the sun 04:024 Recitative (Levite): Great prince 00:275 Air (Levite): Thrice bless'd 03:326 Recitative (Attendant, Solomon, First Harlot): My sovereign liege 01:577 Trio (First Harlot, Second Harlot, Solomon): Words are weak 04:128 Recitative (Solomon, Second Harlot): What says the other 01:069 Air (Second Harlot): Thy sentence 02:1010 Recitative (First Harlot): Withhold, withhold the executing hand 00:1411 Air (First Harlot): Can I see my infant 03:5912 Recitative (Solomon): Israel, attend 01:3313 Duet (First Harlot and Solomon): Thrice bless'd be the king 03:2314 From the east 02:5215 Recitative (Zadok): From morn to eve 00:2616 Air (Zadok): See the tall palm 05:3517 Recitative (First Harlot): No more shall 00:1518 Air (First Harlot): Beneath the vine 04:4119 Swell, swell 02:44

CD3

1 Symphony: Arrival of Queen of Sheba 03:022 Recitative (Queen of Sheba, Solomon): From Arabia's spicy shores 01:003 Air (Queen of Sheba): Ev'ry sight 04:234 Recitative (Solomon): Sweep, sweep 00:125 Solo and Chorus (Solomon & Israelites): Music, spread thy voice around 03:336 Solo and Chorus (Solomon & Israelites): Now a diff'rent measure try 01:457 Recitative (Solomon): Then at once 00:388 Draw the tear 02:329 Recitative (Solomon): Next the totur'd soul 00:1310 Solo and Chorus (Solomon & Israelites): Thus rolling surges rise 03:2111 Recitative (Queen of Sheba): Thy harmony's divine 00:5812 Air (Levite): Pious king 03:1213 Recitative (Zadok): Thrice happy 00:4414 Air (Zadok): Golden columns 03:1815 Praise the Lord 04:1916 Recitative (Solomon): Gold now is common 00:2317 Air (Solomon): How green 02:1218 Recitative (Queen of Sheba): May peace 00:4019 Air (Queen of Sheba): Will the sun 04:5620 Recitative (Solomon): Adieu, fair queen 00:1221 Duet (Queen of Sheba & Solomon): Ev'ry joy 02:4322 The name of the wicked 02:2023 Applause 00:30

Исполнители

George Frideric Handel
Solomon HWV 67Oratoriuo in three actsYear of composition: 1748
Tim Mead (Solomon -alto-)Dominique Labelle (Queen/First Harlot -soprano-)Claron McFadden (Queen of Sheba/Second Harlot -soprano-)Michael Slattery (High Priest Zadok -tenor-)William Kendall (Attendant -tenor-)Roderick Williams (Levite -bass-)
Winchester Cathedral ChoirFestspielOrchester GöttingenConductor: Nicholas McGegan
Release Date: September 18, 2007 (оригинал)Release Date: 5 Aug. 2016 (переиздание)

Лог создания рипа

CD1

Exact Audio Copy V1.3 from 2. September 2016
EAC extraction logfile from 22. May 2018, 18:42
Nicholas McGegan / Handel - Solomon (Disc 1)
Used drive : ATAPI iHAS124 F Adapter: 1 ID: 0
Read mode : SecureUtilize accurate stream : YesDefeat audio cache : YesMake use of C2 pointers : No
Read offset correction : 6Overread into Lead-In and Lead-Out : NoFill up missing offset samples with silence : YesDelete leading and trailing silent blocks : NoNull samples used in CRC calculations : YesUsed interface : Native Win32 interface for Win NT & 2000
Used output format : User Defined EncoderSelected bitrate : 1024 kBit/sQuality : HighAdd ID3 tag : NoCommand line compressor : C:\Program Files (x86)\Exact Audio Copy\FLAC\FLAC.EXEAdditional command line options : -8 -V -T "TITLE=%title%" -T "ARTIST=%artist%" -T "ALBUMARTIST=%albumartist%" -T "ALBUM=%albumtitle%" -T "DATE=%year%" -T "TRACKNUMBER=%tracknr%" -T "TRACKTOTAL=%numtracks%" -T "GENRE=%genre%" -T "COMMENT=%comment%" -T "PERFORMER=%albuminterpret%" -T "COMPOSER=%composer%" %source% -o %dest%
TOC of the extracted CD
Track | Start | Length | Start sector | End sector --------------------------------------------------------- 1 | 0:00.00 | 6:59.04 | 0 | 31428 2 | 6:59.04 | 3:45.11 | 31429 | 48314 3 | 10:44.15 | 4:48.56 | 48315 | 69970 4 | 15:32.71 | 4:31.03 | 69971 | 90298 5 | 20:03.74 | 2:40.19 | 90299 | 102317 6 | 22:44.18 | 0:56.03 | 102318 | 106520 7 | 23:40.21 | 4:34.46 | 106521 | 127116 8 | 28:14.67 | 2:48.46 | 127117 | 139762 9 | 31:03.38 | 0:20.17 | 139763 | 141279 10 | 31:23.55 | 6:30.74 | 141280 | 170603 11 | 37:54.54 | 0:37.18 | 170604 | 173396 12 | 38:31.72 | 5:18.31 | 173397 | 197277 13 | 43:50.28 | 0:34.56 | 197278 | 199883 14 | 44:25.09 | 3:02.32 | 199884 | 213565 15 | 47:27.41 | 0:44.34 | 213566 | 216899 16 | 48:12.00 | 2:59.20 | 216900 | 230344 17 | 51:11.20 | 0:08.59 | 230345 | 231003 18 | 51:20.04 | 3:10.71 | 231004 | 245324 19 | 54:31.00 | 0:13.32 | 245325 | 246331 20 | 54:44.32 | 2:02.03 | 246332 | 255484 21 | 56:46.35 | 0:18.58 | 255485 | 256892 22 | 57:05.18 | 3:13.33 | 256893 | 271400
Range status and errors
Selected range
Filename C:\EACRip\HANDEL\Handel - Oratorien [Carus, 13CD]\CD11 - Solomon (I)\Handel - Solomon (Disc 1) - Nicholas McGegan.wav
Peak level 80.9 % Extraction speed 8.8 X Range quality 100.0 % Test CRC 1A230BDE Copy CRC 1A230BDE Copy OK
No errors occurred
AccurateRip summary
Track 1 accurately ripped (confidence 2) [413C1434] (AR v2)Track 2 accurately ripped (confidence 2) [355CD896] (AR v2)Track 3 accurately ripped (confidence 2) [E4C4FF61] (AR v2)Track 4 accurately ripped (confidence 2) [9BDA6825] (AR v2)Track 5 accurately ripped (confidence 2) [4E086EEB] (AR v2)Track 6 accurately ripped (confidence 2) [6BFA27B0] (AR v2)Track 7 accurately ripped (confidence 2) [ACE2B79C] (AR v2)Track 8 accurately ripped (confidence 2) [469F1FAF] (AR v2)Track 9 accurately ripped (confidence 2) [21392183] (AR v2)Track 10 accurately ripped (confidence 2) [A2CFB642] (AR v2)Track 11 accurately ripped (confidence 2) [EAF9D38A] (AR v2)Track 12 accurately ripped (confidence 2) [9BEB5093] (AR v2)Track 13 accurately ripped (confidence 2) [29F7836D] (AR v2)Track 14 accurately ripped (confidence 2) [48C8167F] (AR v2)Track 15 accurately ripped (confidence 2) [E0CA23C9] (AR v2)Track 16 accurately ripped (confidence 2) [BA195C26] (AR v2)Track 17 accurately ripped (confidence 2) [24214C2C] (AR v2)Track 18 accurately ripped (confidence 2) [35695136] (AR v2)Track 19 accurately ripped (confidence 2) [5D3B9E1A] (AR v2)Track 20 accurately ripped (confidence 2) [E047555A] (AR v2)Track 21 accurately ripped (confidence 2) [ACDB3B5C] (AR v2)Track 22 accurately ripped (confidence 2) [0015422C] (AR v2)
All tracks accurately ripped
End of status report
---- CUETools DB Plugin V2.1.6
[CTDB TOCID: adTQvPCU.AjJVwnJgvdwS9WaLZ8-] foundSubmit result: adTQvPCU.AjJVwnJgvdwS9WaLZ8- has been confirmedTrack | CTDB Status 1 | (12/12) Accurately ripped 2 | (12/12) Accurately ripped 3 | (12/12) Accurately ripped 4 | (12/12) Accurately ripped 5 | (12/12) Accurately ripped 6 | (12/12) Accurately ripped 7 | (12/12) Accurately ripped 8 | (12/12) Accurately ripped 9 | (12/12) Accurately ripped 10 | (12/12) Accurately ripped 11 | (12/12) Accurately ripped 12 | (12/12) Accurately ripped 13 | (12/12) Accurately ripped 14 | (12/12) Accurately ripped 15 | (12/12) Accurately ripped 16 | (12/12) Accurately ripped 17 | (12/12) Accurately ripped 18 | (12/12) Accurately ripped 19 | (12/12) Accurately ripped 20 | (12/12) Accurately ripped 21 | (12/12) Accurately ripped 22 | (12/12) Accurately ripped
==== Log checksum 75FC954032AC28B30AC12EAFBDB9A993B40400A586582CC23C89C64CB81F8928 ====

CD2

Exact Audio Copy V1.3 from 2. September 2016
EAC extraction logfile from 22. May 2018, 19:10
Nicholas McGegan / Handel - Solomon (Disc 2)
Used drive : ATAPI iHAS124 F Adapter: 1 ID: 0
Read mode : SecureUtilize accurate stream : YesDefeat audio cache : YesMake use of C2 pointers : No
Read offset correction : 6Overread into Lead-In and Lead-Out : NoFill up missing offset samples with silence : YesDelete leading and trailing silent blocks : NoNull samples used in CRC calculations : YesUsed interface : Native Win32 interface for Win NT & 2000
Used output format : User Defined EncoderSelected bitrate : 1024 kBit/sQuality : HighAdd ID3 tag : NoCommand line compressor : C:\Program Files (x86)\Exact Audio Copy\FLAC\FLAC.EXEAdditional command line options : -8 -V -T "TITLE=%title%" -T "ARTIST=%artist%" -T "ALBUMARTIST=%albumartist%" -T "ALBUM=%albumtitle%" -T "DATE=%year%" -T "TRACKNUMBER=%tracknr%" -T "TRACKTOTAL=%numtracks%" -T "GENRE=%genre%" -T "COMMENT=%comment%" -T "PERFORMER=%albuminterpret%" -T "COMPOSER=%composer%" %source% -o %dest%
TOC of the extracted CD
Track | Start | Length | Start sector | End sector --------------------------------------------------------- 1 | 0:00.00 | 5:11.23 | 0 | 23347 2 | 5:11.23 | 0:55.40 | 23348 | 27512 3 | 6:06.63 | 4:01.41 | 27513 | 45628 4 | 10:08.29 | 0:27.06 | 45629 | 47659 5 | 10:35.35 | 3:32.00 | 47660 | 63559 6 | 14:07.35 | 1:56.70 | 63560 | 72329 7 | 16:04.30 | 4:11.44 | 72330 | 91198 8 | 20:15.74 | 1:06.24 | 91199 | 96172 9 | 21:22.23 | 2:10.07 | 96173 | 105929 10 | 23:32.30 | 0:13.53 | 105930 | 106957 11 | 23:46.08 | 3:59.23 | 106958 | 124905 12 | 27:45.31 | 1:32.49 | 124906 | 131854 13 | 29:18.05 | 3:23.19 | 131855 | 147098 14 | 32:41.24 | 2:51.40 | 147099 | 159963 15 | 35:32.64 | 0:26.04 | 159964 | 161917 16 | 35:58.68 | 5:34.60 | 161918 | 187027 17 | 41:33.53 | 0:14.69 | 187028 | 188146 18 | 41:48.47 | 4:40.43 | 188147 | 209189 19 | 46:29.15 | 2:44.05 | 209190 | 221494
Range status and errors
Selected range
Filename C:\EACRip\HANDEL\Handel - Oratorien [Carus, 13CD]\CD12 - Solomon (II)\Handel - Solomon (Disc 2) - Nicholas McGegan.wav
Peak level 97.1 % Extraction speed 8.3 X Range quality 100.0 % Test CRC BD7ED721 Copy CRC BD7ED721 Copy OK
No errors occurred
AccurateRip summary
Track 1 accurately ripped (confidence 2) [96C0575F] (AR v2)Track 2 accurately ripped (confidence 2) [0A7D4679] (AR v2)Track 3 accurately ripped (confidence 2) [FECA9D31] (AR v2)Track 4 accurately ripped (confidence 2) [60F6EBCC] (AR v2)Track 5 accurately ripped (confidence 2) [C63455C8] (AR v2)Track 6 accurately ripped (confidence 2) [1FBD8EE6] (AR v2)Track 7 accurately ripped (confidence 2) [52FC64DA] (AR v2)Track 8 accurately ripped (confidence 2) [6B499E69] (AR v2)Track 9 accurately ripped (confidence 2) [0E900431] (AR v2)Track 10 accurately ripped (confidence 2) [95561D0A] (AR v2)Track 11 accurately ripped (confidence 2) [10C39BDE] (AR v2)Track 12 accurately ripped (confidence 2) [35EEA7A0] (AR v2)Track 13 accurately ripped (confidence 2) [D772A137] (AR v2)Track 14 accurately ripped (confidence 2) [0510E99A] (AR v2)Track 15 accurately ripped (confidence 2) [3171E47E] (AR v2)Track 16 accurately ripped (confidence 2) [B9B8F03C] (AR v2)Track 17 accurately ripped (confidence 2) [4A7767CA] (AR v2)Track 18 accurately ripped (confidence 2) [43122AFF] (AR v2)Track 19 accurately ripped (confidence 2) [8EFD622D] (AR v2)
All tracks accurately ripped
End of status report
---- CUETools DB Plugin V2.1.6
[CTDB TOCID: k72c6U3Kry__IE8RvyyrmISmkZI-] foundSubmit result: k72c6U3Kry__IE8RvyyrmISmkZI- has been confirmedTrack | CTDB Status 1 | (12/12) Accurately ripped 2 | (12/12) Accurately ripped 3 | (12/12) Accurately ripped 4 | (12/12) Accurately ripped 5 | (12/12) Accurately ripped 6 | (12/12) Accurately ripped 7 | (12/12) Accurately ripped 8 | (12/12) Accurately ripped 9 | (12/12) Accurately ripped 10 | (12/12) Accurately ripped 11 | (12/12) Accurately ripped 12 | (12/12) Accurately ripped 13 | (12/12) Accurately ripped 14 | (12/12) Accurately ripped 15 | (12/12) Accurately ripped 16 | (12/12) Accurately ripped 17 | (12/12) Accurately ripped 18 | (12/12) Accurately ripped 19 | (12/12) Accurately ripped
==== Log checksum 4519AEA414BA11E39814881B99378A11753DA9CD43FBB2A889D1080964397A1E ====

CD3

Exact Audio Copy V1.3 from 2. September 2016
EAC extraction logfile from 22. May 2018, 19:39
Nicholas McGegan / Handel - Solomon (Disc 3)
Used drive : ATAPI iHAS124 F Adapter: 1 ID: 0
Read mode : SecureUtilize accurate stream : YesDefeat audio cache : YesMake use of C2 pointers : No
Read offset correction : 6Overread into Lead-In and Lead-Out : NoFill up missing offset samples with silence : YesDelete leading and trailing silent blocks : NoNull samples used in CRC calculations : YesUsed interface : Native Win32 interface for Win NT & 2000
Used output format : User Defined EncoderSelected bitrate : 1024 kBit/sQuality : HighAdd ID3 tag : NoCommand line compressor : C:\Program Files (x86)\Exact Audio Copy\FLAC\FLAC.EXEAdditional command line options : -8 -V -T "TITLE=%title%" -T "ARTIST=%artist%" -T "ALBUMARTIST=%albumartist%" -T "ALBUM=%albumtitle%" -T "DATE=%year%" -T "TRACKNUMBER=%tracknr%" -T "TRACKTOTAL=%numtracks%" -T "GENRE=%genre%" -T "COMMENT=%comment%" -T "PERFORMER=%albuminterpret%" -T "COMPOSER=%composer%" %source% -o %dest%
TOC of the extracted CD
Track | Start | Length | Start sector | End sector --------------------------------------------------------- 1 | 0:00.00 | 3:01.41 | 0 | 13615 2 | 3:01.41 | 0:59.51 | 13616 | 18091 3 | 4:01.17 | 4:22.72 | 18092 | 37813 4 | 8:24.14 | 0:11.39 | 37814 | 38677 5 | 8:35.53 | 3:32.59 | 38678 | 54636 6 | 12:08.37 | 1:44.71 | 54637 | 62507 7 | 13:53.33 | 0:37.71 | 62508 | 65353 8 | 14:31.29 | 2:30.42 | 65354 | 76645 9 | 17:01.71 | 0:12.73 | 76646 | 77618 10 | 17:14.69 | 3:21.27 | 77619 | 92720 11 | 20:36.21 | 0:57.74 | 92721 | 97069 12 | 21:34.20 | 3:12.15 | 97070 | 111484 13 | 24:46.35 | 0:43.57 | 111485 | 114766 14 | 25:30.17 | 3:18.06 | 114767 | 129622 15 | 28:48.23 | 4:19.18 | 129623 | 149065 16 | 33:07.41 | 0:22.59 | 149066 | 150774 17 | 33:30.25 | 2:11.39 | 150775 | 160638 18 | 35:41.64 | 0:39.63 | 160639 | 163626 19 | 36:21.52 | 4:55.39 | 163627 | 185790 20 | 41:17.16 | 0:12.18 | 185791 | 186708 21 | 41:29.34 | 2:42.72 | 186709 | 198930 22 | 44:12.31 | 2:20.27 | 198931 | 209457 23 | 46:32.58 | 0:30.10 | 209458 | 211717
Range status and errors
Selected range
Filename C:\EACRip\HANDEL\Handel - Oratorien [Carus, 13CD]\CD13 - Solomon (III)\Handel - Solomon (Disc 3) - Nicholas McGegan.wav
Peak level 86.8 % Extraction speed 6.9 X Range quality 100.0 % Test CRC 2B40F9F0 Copy CRC 2B40F9F0 Copy OK
No errors occurred
AccurateRip summary
Track 1 accurately ripped (confidence 2) [D9C49435] (AR v2)Track 2 accurately ripped (confidence 2) [BD7A1C83] (AR v2)Track 3 accurately ripped (confidence 2) [FBDA39EC] (AR v2)Track 4 accurately ripped (confidence 2) [F746CAFE] (AR v2)Track 5 accurately ripped (confidence 2) [7DF7F9E3] (AR v2)Track 6 accurately ripped (confidence 2) [73E8DA34] (AR v2)Track 7 accurately ripped (confidence 2) [2EA6BD16] (AR v2)Track 8 accurately ripped (confidence 2) [757EA931] (AR v2)Track 9 accurately ripped (confidence 2) [9E1652F7] (AR v2)Track 10 accurately ripped (confidence 2) [E7A28AFD] (AR v2)Track 11 accurately ripped (confidence 2) [EC5E1718] (AR v2)Track 12 accurately ripped (confidence 2) [9040B458] (AR v2)Track 13 accurately ripped (confidence 2) [F8C5B6E5] (AR v2)Track 14 accurately ripped (confidence 2) [F58A0DAB] (AR v2)Track 15 accurately ripped (confidence 2) [AC46565A] (AR v2)Track 16 accurately ripped (confidence 2) [260E47F7] (AR v2)Track 17 accurately ripped (confidence 2) [E663AD9F] (AR v2)Track 18 accurately ripped (confidence 2) [22F92C2E] (AR v2)Track 19 accurately ripped (confidence 2) [A2C797EF] (AR v2)Track 20 accurately ripped (confidence 2) [436819F0] (AR v2)Track 21 accurately ripped (confidence 2) [7CF77990] (AR v2)Track 22 accurately ripped (confidence 2) [E86C2A66] (AR v2)Track 23 accurately ripped (confidence 2) [B8B56AD4] (AR v2)
All tracks accurately ripped
End of status report
---- CUETools DB Plugin V2.1.6
[CTDB TOCID: TnHexAh.RYB60rhOPm9txRpwIwM-] foundSubmit result: TnHexAh.RYB60rhOPm9txRpwIwM- has been confirmedTrack | CTDB Status 1 | (13/13) Accurately ripped 2 | (13/13) Accurately ripped 3 | (13/13) Accurately ripped 4 | (13/13) Accurately ripped 5 | (13/13) Accurately ripped 6 | (13/13) Accurately ripped 7 | (13/13) Accurately ripped 8 | (13/13) Accurately ripped 9 | (13/13) Accurately ripped 10 | (13/13) Accurately ripped 11 | (13/13) Accurately ripped 12 | (13/13) Accurately ripped 13 | (13/13) Accurately ripped 14 | (13/13) Accurately ripped 15 | (13/13) Accurately ripped 16 | (13/13) Accurately ripped 17 | (13/13) Accurately ripped 18 | (13/13) Accurately ripped 19 | (13/13) Accurately ripped 20 | (13/13) Accurately ripped 21 | (13/13) Accurately ripped 22 | (13/13) Accurately ripped 23 | (13/13) Accurately ripped
==== Log checksum 5861EA9F3D1C2F12172B08EEC0463A73C756213DCD5BDA532D9C2776F04BA88F ====

Содержание индексной карты (.CUE)

CD1

REM GENRE ChoralREM DATE 2007REM DISCID 500E2216REM COMMENT "ExactAudioCopy v1.3"PERFORMER "Winchester Cathedral Choir, FestspielOrchester Göttingen, Nicholas McGegan (conductor) / Tim Mead (Solomon -alto-), Dominique Labelle (Queen/First Harlot -soprano-), Claron McFadden (Queen of Sheba/Second Harlot -soprano-), Michael Slattery (High Priest Zadok -tenor-), William Kendall (Attendant -tenor-), Roderick Williams (Levite -bass-)"TITLE "Handel - Solomon (Disc 1)"REM COMPOSER "George Frideric Handel (1685-1759)"FILE "Handel - Solomon (Disc 1) - Nicholas McGegan.flac" WAVE  TRACK 01 AUDIO    TITLE "Solomon, HWV 67, oratorio in three acts - ACT I. Ouverture"    PERFORMER "FestspielOrchester Göttingen, Nicholas McGegan"    REM COMPOSER "George Frideric Handel"    INDEX 01 00:00:00  TRACK 02 AUDIO    TITLE "Scene 1. Chorus of Priests: Your harps and cymbals"    PERFORMER "Winchester Cathedral Choir, FestspielOrchester Göttingen, Nicholas McGegan"    REM COMPOSER "George Frideric Handel"    INDEX 01 06:59:04  TRACK 03 AUDIO    TITLE "Scene 1. Air (Levite): Praise ye the Lord for all His mercies past"    PERFORMER "FestspielOrchester Göttingen, Nicholas McGegan & Roderick Williams"    REM COMPOSER "George Frideric Handel"    INDEX 01 10:44:15  TRACK 04 AUDIO    TITLE "Scene 1. Chorus of Priests: With pious heart"    PERFORMER "Winchester Cathedral Choir, FestspielOrchester Göttingen, Nicholas McGegan"    REM COMPOSER "George Frideric Handel"    INDEX 01 15:32:71  TRACK 05 AUDIO    TITLE "Scene 1. Air (Solomon): Almighty pow’r, who rul’st the earth and skies"    PERFORMER "FestspielOrchester Göttingen, Nicholas McGegan & Tim Mead"    REM COMPOSER "George Frideric Handel"    INDEX 01 20:03:74  TRACK 06 AUDIO    TITLE "Scene 1. Recitative (Zadok): Imperial Solomon, thy pray’rs are heard"    PERFORMER "FestspielOrchester Göttingen, Nicholas McGegan & Michael Slattery"    REM COMPOSER "George Frideric Handel"    INDEX 01 22:44:18  TRACK 07 AUDIO    TITLE "Scene 1. Air (Zadok): Sacred raptures cheer my breast"    PERFORMER "FestspielOrchester Göttingen, Nicholas McGegan & Michael Slattery"    REM COMPOSER "George Frideric Handel"    INDEX 01 23:40:21  TRACK 08 AUDIO    TITLE "Scene 1. Chorus of Israelites: Throughout thy land Jehovah’s praise record"    PERFORMER "Winchester Cathedral Choir, FestspielOrchester Göttingen, Nicholas McGegan"    REM COMPOSER "George Frideric Handel"    INDEX 01 28:14:67  TRACK 09 AUDIO    TITLE "Scene 1. Recitative (Solomon): Bless’d be the Lord, who look’d with gracious eyes"    PERFORMER "FestspielOrchester Göttingen, Nicholas McGegan & Tim Mead"    REM COMPOSER "George Frideric Handel"    INDEX 01 31:03:38  TRACK 10 AUDIO    TITLE "Scene 1. Air (Solomon): What though I trace each herb and flow’r"    PERFORMER "FestspielOrchester Göttingen, Nicholas McGegan & Tim Mead"    REM COMPOSER "George Frideric Handel"    INDEX 01 31:23:55  TRACK 11 AUDIO    TITLE "Scene 2. Recitative (Solomon): And see my queen, my wedded love"    PERFORMER "FestspielOrchester Göttingen, Nicholas McGegan & Tim Mead"    REM COMPOSER "George Frideric Handel"    INDEX 01 37:54:54  TRACK 12 AUDIO    TITLE "Scene 2. Air (Queen): Bless’d the day when first my eyes"    PERFORMER "FestspielOrchester Göttingen, Nicholas McGegan & Dominique Labelle"    REM COMPOSER "George Frideric Handel"    INDEX 01 38:31:72  TRACK 13 AUDIO    TITLE "Scene 2. Recitative (Solomon, Queen): Thou fair inhabitant of Nile"    PERFORMER "FestspielOrchester Göttingen, Nicholas McGegan & Tim Mead, Dominique Labelle"    REM COMPOSER "George Frideric Handel"    INDEX 01 43:50:28  TRACK 14 AUDIO    TITLE "Scene 2. Duet (Queen, Solomon): Welcome as the dawn of day"    PERFORMER "FestspielOrchester Göttingen, Nicholas McGegan & Dominique Labelle, Tim Mead"    REM COMPOSER "George Frideric Handel"    INDEX 01 44:25:09  TRACK 15 AUDIO    TITLE "Scene 2. Recitative (Zadok): Vain are the transient beauties of the beauties"    PERFORMER "FestspielOrchester Göttingen, Nicholas McGegan & Michael Slattery"    REM COMPOSER "George Frideric Handel"    INDEX 01 47:27:41  TRACK 16 AUDIO    TITLE "Scene 2. Air (Zadok): Indulge thy faith and wedded truth"    PERFORMER "Winchester Cathedral Choir, FestspielOrchester Göttingen, Nicholas McGegan & Michael Slattery"    REM COMPOSER "George Frideric Handel"    INDEX 01 48:12:00  TRACK 17 AUDIO    TITLE "Scene 2. Recitative (Solomon): My blooming fair, come, come away"    PERFORMER "FestspielOrchester Göttingen, Nicholas McGegan & Tim Mead"    REM COMPOSER "George Frideric Handel"    INDEX 01 51:11:20  TRACK 18 AUDIO    TITLE "Scene 2. Air (Solomon): Haste, haste to the cedar grove"    PERFORMER "FestspielOrchester Göttingen, Nicholas McGegan & Tim Mead"    REM COMPOSER "George Frideric Handel"    INDEX 01 51:20:04  TRACK 19 AUDIO    TITLE "Scene 2. Recitative (Queen): When thou art absent from my sight"    PERFORMER "FestspielOrchester Göttingen, Nicholas McGegan & Dominique Labelle"    REM COMPOSER "George Frideric Handel"    INDEX 01 54:31:00  TRACK 20 AUDIO    TITLE "Scene 2. Air (Queen): With thee th’unshelter’d moor I’d tread"    PERFORMER "FestspielOrchester Göttingen, Nicholas McGegan & Dominique Labelle"    REM COMPOSER "George Frideric Handel"    INDEX 01 54:44:32  TRACK 21 AUDIO    TITLE "Scene 2. Recitative (Zadok): Search round the world, there never yet was seen"    PERFORMER "FestspielOrchester Göttingen, Nicholas McGegan & Michael Slattery"    REM COMPOSER "George Frideric Handel"    INDEX 01 56:46:35  TRACK 22 AUDIO    TITLE "Scene 2. Chorus: May no rash intruder disturb their soft hours"    PERFORMER "Winchester Cathedral Choir, FestspielOrchester Göttingen, Nicholas McGegan"    REM COMPOSER "George Frideric Handel"    INDEX 01 57:05:18

CD2

REM GENRE ChoralREM DATE 2007REM DISCID 060B8913REM COMMENT "ExactAudioCopy v1.3"PERFORMER "Winchester Cathedral Choir, FestspielOrchester Göttingen, Nicholas McGegan (conductor) / Tim Mead (Solomon -alto-), Dominique Labelle (Queen/First Harlot -soprano-), Claron McFadden (Queen of Sheba/Second Harlot -soprano-), Michael Slattery (High Priest Zadok -tenor-), William Kendall (Attendant -tenor-), Roderick Williams (Levite -bass-)"TITLE "Handel - Solomon (Disc 2)"REM COMPOSER "George Frideric Handel (1685-1759)"FILE "Handel - Solomon (Disc 2) - Nicholas McGegan.flac" WAVE  TRACK 01 AUDIO    TITLE "ACT II: Scene 1. Chorus of Israelites: From the censer curling rise"    PERFORMER "Winchester Cathedral Choir, FestspielOrchester Göttingen, Nicholas McGegan"    REM COMPOSER "George Frideric Handel"    INDEX 01 00:00:00  TRACK 02 AUDIO    TITLE "Scene 1. Recitative (Solomon): Prais’d be the Lord, from Him my wisdom springs"    PERFORMER "FestspielOrchester Göttingen, Nicholas McGegan & Tim Mead"    REM COMPOSER "George Frideric Handel"    INDEX 01 05:11:23  TRACK 03 AUDIO    TITLE "Scene 1. Air (Solomon): When the sun o’er yonder hills"    PERFORMER "FestspielOrchester Göttingen, Nicholas McGegan & Tim Mead"    REM COMPOSER "George Frideric Handel"    INDEX 01 06:06:63  TRACK 04 AUDIO    TITLE "Scene 1. Recitative (Levite): Great prince, thy resolution’s just"    PERFORMER "FestspielOrchester Göttingen, Nicholas McGegan & Roderick Williams"    REM COMPOSER "George Frideric Handel"    INDEX 01 10:08:29  TRACK 05 AUDIO    TITLE "Scene 1. Air (Levite): Thrice bless’d that wise discerning king"    PERFORMER "FestspielOrchester Göttingen, Nicholas McGegan & Roderick Williams"    REM COMPOSER "George Frideric Handel"    INDEX 01 10:35:35  TRACK 06 AUDIO    TITLE "Scene 2. Recitative (Attendant, Solomon): My sovereign liege, two women stand / Scene 3. Recitative (First Harlot): Thou son of David, hear a mother’s grief"    PERFORMER "FestspielOrchester Göttingen, Nicholas McGegan & William Kendall, Tim Mead, Dominique Labelle"    REM COMPOSER "George Frideric Handel"    INDEX 01 14:07:35  TRACK 07 AUDIO    TITLE "Scene 2. Trio (First Harlot, Second Harlot, Solomon): Words are weak to paint my fears"    PERFORMER "FestspielOrchester Göttingen, Nicholas McGegan & Dominique Labelle, Claron McFadden, Tim Mead"    REM COMPOSER "George Frideric Handel"    INDEX 01 16:04:30  TRACK 08 AUDIO    TITLE "Scene 2. Recitative (Solomon, Second Harlot): What says the other to th’imputed charge?"    PERFORMER "FestspielOrchester Göttingen, Nicholas McGegan & Tim Mead, Claron McFadden"    REM COMPOSER "George Frideric Handel"    INDEX 01 20:15:74  TRACK 09 AUDIO    TITLE "Scene 2. Air (Second Harlot): Thy sentence, great king"    PERFORMER "FestspielOrchester Göttingen, Nicholas McGegan & Claron McFadden"    REM COMPOSER "George Frideric Handel"    INDEX 01 21:22:23  TRACK 10 AUDIO    TITLE "Scene 2. Recitative (First Harlot): Withhold, withhold the executing hand!"    PERFORMER "FestspielOrchester Göttingen, Nicholas McGegan & Dominique Labelle"    REM COMPOSER "George Frideric Handel"    INDEX 01 23:32:30  TRACK 11 AUDIO    TITLE "Scene 2. Air (First Harlot): Can I see my infant gor’d"    PERFORMER "FestspielOrchester Göttingen, Nicholas McGegan & Dominique Labelle"    REM COMPOSER "George Frideric Handel"    INDEX 01 23:46:08  TRACK 12 AUDIO    TITLE "Scene 2. Recitative (Solomon): Israel, attend to what your king shall say"    PERFORMER "FestspielOrchester Göttingen, Nicholas McGegan & Tim Mead"    REM COMPOSER "George Frideric Handel"    INDEX 01 27:45:31  TRACK 13 AUDIO    TITLE "Scene 2. Duet (First Harlot & Solomon): Thrice bless’d be the king"    PERFORMER "FestspielOrchester Göttingen, Nicholas McGegan & Dominique Labelle, Tim Mead"    REM COMPOSER "George Frideric Handel"    INDEX 01 29:18:05  TRACK 14 AUDIO    TITLE "Scene 2. Chorus of Israelites: From the east unto the west"    PERFORMER "Winchester Cathedral Choir, FestspielOrchester Göttingen, Nicholas McGegan & "    REM COMPOSER "George Frideric Handel"    INDEX 01 32:41:24  TRACK 15 AUDIO    TITLE "Scene 2. Recitative (Zadok): From morn to eve I could enraptur’d ding"    PERFORMER "FestspielOrchester Göttingen, Nicholas McGegan & Michael Slattery"    REM COMPOSER "George Frideric Handel"    INDEX 01 35:32:64  TRACK 16 AUDIO    TITLE "Scene 2. Air (Zadok): See the tall palm that lifts head"    PERFORMER "FestspielOrchester Göttingen, Nicholas McGegan & Michael Slattery"    REM COMPOSER "George Frideric Handel"    INDEX 01 35:58:68  TRACK 17 AUDIO    TITLE "Scene 2. Recitative (First Harlot): No more shall armed bands our hopes destroy"    PERFORMER "FestspielOrchester Göttingen, Nicholas McGegan & Dominique Labelle"    REM COMPOSER "George Frideric Handel"    INDEX 01 41:33:53  TRACK 18 AUDIO    TITLE "Scene 2. Air (First Harlot): Beneath the vine, or fig-tree’s shade"    PERFORMER "FestspielOrchester Göttingen, Nicholas McGegan & Dominique Labelle"    REM COMPOSER "George Frideric Handel"    INDEX 01 41:48:47  TRACK 19 AUDIO    TITLE "Scene 2. Chorus of Priests: Swell, swell the full chorus"    PERFORMER "Winchester Cathedral Choir, FestspielOrchester Göttingen, Nicholas McGegan"    REM COMPOSER "George Frideric Handel"    INDEX 01 46:29:15

CD3

REM GENRE ClassicalREM DATE 2007REM DISCID 3C0B0617REM COMMENT "ExactAudioCopy v1.3"PERFORMER "Winchester Cathedral Choir, FestspielOrchester Göttingen, Nicholas McGegan (conductor) / Tim Mead (Solomon -alto-), Dominique Labelle (Queen/First Harlot -soprano-), Claron McFadden (Queen of Sheba/Second Harlot -soprano-), Michael Slattery (High Priest Zadok -tenor-), William Kendall (Attendant -tenor-), Roderick Williams (Levite -bass-)"TITLE "Handel - Solomon (Disc 3)"REM COMPOSER "George Frideric Handel (1685-1759)"FILE "Handel - Solomon (Disc 3) - Nicholas McGegan.flac" WAVE  TRACK 01 AUDIO    TITLE "ACT III. Symphony: Arrival of the Queen of Sheba"    PERFORMER "FestspielOrchester Göttingen, Nicholas McGegan"    REM COMPOSER "George Frideric Handel"    INDEX 01 00:00:00  TRACK 02 AUDIO    TITLE "Recitative (Queen of Sheba, Solomon): From Arabia’s spicy shores"    PERFORMER "FestspielOrchester Göttingen, Nicholas McGegan & Claron McFadden, Tim Mead"    REM COMPOSER "George Frideric Handel"    INDEX 01 03:01:41  TRACK 03 AUDIO    TITLE "Air (Queen of Sheba): Ev’ry sight these eyes behold"    PERFORMER "FestspielOrchester Göttingen, Nicholas McGegan & Claron McFadden"    REM COMPOSER "George Frideric Handel"    INDEX 01 04:01:17  TRACK 04 AUDIO    TITLE "Recitative (Solomon): Sweep, sweep the string, to soothe the royal fair"    PERFORMER "FestspielOrchester Göttingen, Nicholas McGegan & Tim Mead"    REM COMPOSER "George Frideric Handel"    INDEX 01 08:24:14  TRACK 05 AUDIO    TITLE "Solo and Chorus (Solomon & Israelites): Music, spread thy voice around"    PERFORMER "Winchester Cathedral Choir, FestspielOrchester Göttingen, Nicholas McGegan & Tim Mead"    REM COMPOSER "George Frideric Handel"    INDEX 01 08:35:53  TRACK 06 AUDIO    TITLE "Solo and Chorus (Solomon & Israelites): Now a diff’rent measure try"    PERFORMER "Winchester Cathedral Choir, FestspielOrchester Göttingen, Nicholas McGegan & Tim Mead"    REM COMPOSER "George Frideric Handel"    INDEX 01 12:08:37  TRACK 07 AUDIO    TITLE "Recitative (Solomon): Then at once from rage remove"    PERFORMER "FestspielOrchester Göttingen, Nicholas McGegan & Tim Mead"    REM COMPOSER "George Frideric Handel"    INDEX 01 13:53:33  TRACK 08 AUDIO    TITLE "Chorus of Israelites: Draw the tear from hopeless love"    PERFORMER "Winchester Cathedral Choir, FestspielOrchester Göttingen, Nicholas McGegan"    REM COMPOSER "George Frideric Handel"    INDEX 01 14:31:29  TRACK 09 AUDIO    TITLE "Recitative (Solomon): Next the tortur’d soul release"    PERFORMER "FestspielOrchester Göttingen, Nicholas McGegan & Tim Mead"    REM COMPOSER "George Frideric Handel"    INDEX 01 17:01:71  TRACK 10 AUDIO    TITLE "Solo and Chorus (Solomon & Israelites): Thus rolling surges rise"    PERFORMER "Winchester Cathedral Choir, FestspielOrchester Göttingen, Nicholas McGegan & Tim Mead"    REM COMPOSER "George Frideric Handel"    INDEX 01 17:14:69  TRACK 11 AUDIO    TITLE "Recitative (Queen of Sheba): Thy harmony’s divine, great king"    PERFORMER "FestspielOrchester Göttingen, Nicholas McGegan & Claron McFadden"    REM COMPOSER "George Frideric Handel"    INDEX 01 20:36:21  TRACK 12 AUDIO    TITLE "Air (Levite): Pious king, and virtuous queen"    PERFORMER "FestspielOrchester Göttingen, Nicholas McGegan & Roderick Williams"    REM COMPOSER "George Frideric Handel"    INDEX 01 21:34:20  TRACK 13 AUDIO    TITLE "Recitative (Zadok): Thrice happy king, to have achiev’d"    PERFORMER "FestspielOrchester Göttingen, Nicholas McGegan & Michael Slattery"    REM COMPOSER "George Frideric Handel"    INDEX 01 24:46:35  TRACK 14 AUDIO    TITLE "Air (Zadok): Golden columns, fair and bright"    PERFORMER "FestspielOrchester Göttingen, Nicholas McGegan & Michael Slattery"    REM COMPOSER "George Frideric Handel"    INDEX 01 25:30:17  TRACK 15 AUDIO    TITLE "Double Chorus: Praise the Lord with harp and tongue!"    PERFORMER "FestspielOrchester Göttingen, Nicholas McGegan"    REM COMPOSER "George Frideric Handel"    INDEX 01 28:48:23  TRACK 16 AUDIO    TITLE "Recitative (Solomon): Gold now is common on our happy shore"    PERFORMER "FestspielOrchester Göttingen, Nicholas McGegan & Tim Mead"    REM COMPOSER "George Frideric Handel"    INDEX 01 33:07:41  TRACK 17 AUDIO    TITLE "Air (Solomon): How green our fertile pastures look!"    PERFORMER "FestspielOrchester Göttingen, Nicholas McGegan & Tim Mead"    REM COMPOSER "George Frideric Handel"    INDEX 01 33:30:25  TRACK 18 AUDIO    TITLE "Recitative (Queen of Sheba): May peace in Salem ever dwell!"    PERFORMER "FestspielOrchester Göttingen, Nicholas McGegan & Claron McFadden"    REM COMPOSER "George Frideric Handel"    INDEX 01 35:41:64  TRACK 19 AUDIO    TITLE "Air (Queen of Sheba): Will the sun forget to streak"    PERFORMER "FestspielOrchester Göttingen, Nicholas McGegan & Claron McFadden"    REM COMPOSER "George Frideric Handel"    INDEX 01 36:21:52  TRACK 20 AUDIO    TITLE "Recitative (Solomon): Adieu, fair queen, and in thy breast"    PERFORMER "FestspielOrchester Göttingen, Nicholas McGegan & Tim Mead"    REM COMPOSER "George Frideric Handel"    INDEX 01 41:17:16  TRACK 21 AUDIO    TITLE "Duet (Queen of Sheba & Solomon): Ev’ry joy that wisdom knows"    PERFORMER "FestspielOrchester Göttingen, Nicholas McGegan & Claron McFadden, Tim Mead"    REM COMPOSER "George Frideric Handel"    INDEX 01 41:29:34  TRACK 22 AUDIO    TITLE "Chorus of Israelites: The name of the wicked shall quickly be past"    PERFORMER "Winchester Cathedral Choir, FestspielOrchester Göttingen, Nicholas McGegan"    REM COMPOSER "George Frideric Handel"    INDEX 01 44:12:31  TRACK 23 AUDIO    TITLE "Applause"    PERFORMER "Spectators"    REM COMPOSER "Recorded Sound"    INDEX 01 46:32:58

Доп. информация

AllMusic Review by Stephen Eddins  [+]Solomon, one of Handel's most compelling oratorios, has been well served on disc, and Nicholas McGegan's version on Carus makes a strong addition. The recording was made at a live performance at the Frauenkirche, Dresden, and that circumstance is one of the few drawbacks of the release. The sound is fine for a live performance, but there is some sense of distance between the listener and the performers, much like there would be in, well, a live performance. The sound of the singers and instrumentalists doesn't have quite the fullness and presence and depth that some recordings create. Again, it's not a major distraction, but it makes it hard to put more effectively engineered versions out of mind, particularly conductor Daniel Reuss' outstanding version on Harmonia Mundi.McGegan's interpretation is solid, if somewhat conventional, without quite igniting the spark that can make the oratorio radiate joy and warmth and sensuality. As an example, the chorus that closes the first section, describing Solomon's marriage, "May no rash intruder disturb their soft hours," can seethe with an erotic charge, but here sounds somewhat polite and perfunctory. All the performers are first rate; the Winchester Cathedral Choir and FestspielOrchester sing and play with vigor and a high level of energy. The soloists are in strong voice. Countertenor Tim Mead is a convincing Solomon, singing with warmth and full, commanding tone. Sopranos Dominique Labelle as Solomon's Queen and the First Harlot, and Claron McFadden as the Queen of Sheba and the Second Harlot bring voices of shining purity to their roles. Labelle is particularly moving as the First Harlot, and her passionate entreaty to Solomon and her ecstatic response to his judgment are among the highlights of the album. The men, tenor Michael Slattery and bass Roderick Williams as the Levite, also deliver strong supporting performances. McGegan's Solomon may not rise to the head of the pack in its intensity and heat, but it's a solid and elegant performance.

[doutdess.info].t282909.torrent
Торрент: Зарегистрирован [ 2018-08-07 23:20 ] · 82C58C711EB130AA18B9D367FE5E9FF68C44F8FA

27 KB

Статус: проверено
Скачан: 0 раз
Размер: 890 MB
(Classical oratorio) Handel - Solomon (Salomo) / Гендель - Соломон [3CD\'s] (Tim Mead, Dominique Labelle, Claron McFadden / Winchester Cathedral Choir, FestspielOrchester Gottingen, Nicholas McGegan) - 2016, FLAC (image+.cue) lossless скачать торрент бесплатно и без регистрации

[Профиль] [ЛС]
Форум Тема Автор Размер
Вокальная музыка в lossless ((classical/operetta)) Schönes bleibt. Unvergessene Tenöre bei WDR 4 / Прекрасное остаётся - 2000, FLAC (image+.cue) lossless Vi$itReal 401 MB
Вокальная и хоровая музыка lossy (Classical (Lieder)) (Lieder) Norman Bailey - Songs of Hugo Wolf - 1979, MP3 (tracks) 320 kbps RelizMAN 120 MB
Концерт для инструмента с оркестром в lossless (Classical ) Top 20 CDs for your Classical Music Collection - ClassicalCDguide.com: 02 - W. A. Mozart - Great Piano Concertos N 20 - 25 (1997) APE (tracks), 450-566 kb/s RelizMAN 582 MB
Концерт для инструмента с оркестром в lossless (Classical ) Top 20 CDs for your Classical Music Collection - ClassicalCDguide.com: 04 - Bach: Die Brandenburgische Konzerte - Orchestra of the Age of Enlightenment 2 CD (1999) APE (tracks), 610-769... RelizMAN 462 MB
Оркестровая музыка в lossless (Classical ) Top 20 CDs for your Classical Music Collection - ClassicalCDguide.com: 06 - Igor Stravinsky; Petroushka, Le Sacre du Printemps - Columbia Symphony Orchestra (Sony 1990) APE (tracks),... Vi$itReal 274 MB
Камерная инструментальная музыка в lossless (Classical ) Top 20 CDs for your Classical Music Collection - ClassicalCDguide.com: 07 - Franz Schubert - \'Trout\' Quintet & \'Death and the Maiden\' - Amadeus Quartet (DG ... Vi$itReal 343 MB
Камерная инструментальная музыка в lossless (Classical ) Top 20 CDs for your Classical Music Collection - ClassicalCDguide.com: 10 - Georges Bizet; Carmen - Sir Thomas Beecham, de Los Angeles, Gedda, Michau, Blanc (EMI 2000) аре (по-треково),... Vi$itReal 745 MB
Камерная инструментальная музыка в lossless (Classical ) Top 20 CDs for your Classical Music Collection - ClassicalCDguide.com: 12 - Франц Шуберт - Симфония No. 3, Unfinished 39; - Carlos Kleiber и Wiener Philharmoniker (DG 1... Vi$itReal 186 MB
Показать сообщения:    

Текущее время: 20-Мар 13:54

Часовой пояс: UTC + 3



Вы не можете начинать темы
Вы не можете отвечать на сообщения
Вы не можете редактировать свои сообщения
Вы не можете удалять свои сообщения
Вы не можете голосовать в опросах
Вы не можете прикреплять файлы к сообщениям
Вы можете скачивать файлы