Reply to topic
DL-List and Torrent activity [Update пиров]
Size:  607 MB   |    Registered:  1 year 3 months   |    Completed:  0 times
Seeders:  165  [  0 KB/s  ]   Leechers:  15  [  0 KB/s  ]  
 
     
 
 
Author Message

Vi$itReal ®

12

Post 18-Apr-2018 08:55

[Quote]

Haydn - String Quartets Op. 50 - Auryn-Quartett
Жанр: Classical
Страна-производитель диска: Germany
Год издания диска: 2009
Издатель (лейбл): Tacet
Номер по каталогу: Tacet 185
Дата записи: 2009
Аудиокодек: FLAC
Тип рипа: tracks+.cue
Битрейт аудио: lossless
Продолжительность: 77:23 + 70:28
Источник: скачано с
сайт-источник/ник/другое: israbox, original source unknown
Наличие сканов в содержимом раздачи: нет
Треклист:
CD 1
String Quartet in B-flat major, Op. 50 no. 1
String Quartet in C major, Op. 50 no. 2
String Quartet in E-flat major, Op. 50 no. 3
CD 2
String Quartet in F-sharp minor, Op. 50 no. 4
String Quartet in F major, Op. 50 no. 5
String Quartet in D major, Op. 50 no. 6
Исполнители:
Auryn-Quartett:
Violin – Jens Oppermann, Matthias Lingenfelder
Viola – Stewart Eaton
Cello – Andreas Arndt

Лог создания рипа


CD 1

Exact Audio Copy V0.99 prebeta 5 from 4. May 2009
EAC extraction logfile from 20. February 2011, 20:22
Auryn Quartet / Haydn String Quartets Op.50 [Disc 1]
Used drive : TSSTcorpCDDVDW SH-S203D Adapter: 4 ID: 1
Read mode : Secure
Utilize accurate stream : Yes
Defeat audio cache : Yes
Make use of C2 pointers : No
Read offset correction : 6
Overread into Lead-In and Lead-Out : No
Fill up missing offset samples with silence : Yes
Delete leading and trailing silent blocks : No
Null samples used in CRC calculations : Yes
Used interface : Native Win32 interface for Win NT & 2000
Gap handling : Appended to previous track
Used output format : User Defined Encoder
Selected bitrate : 1024 kBit/s
Quality : High
Add ID3 tag : No
Command line compressor : C:\Program Files\Exact Audio Copy\FLAC\FLAC.EXE
Additional command line options : -6 -V -T "ARTIST=%a" -T "TITLE=%t" -T "ALBUM=%g" -T "DATE=%y" -T "TRACKNUMBER=%n" -T "GENRE=%m" -T "COMMENT=%e" %s -o %d
TOC of the extracted CD
Track | Start | Length | Start sector | End sector
---------------------------------------------------------
1 | 0:00.00 | 9:35.12 | 0 | 43136
2 | 9:35.12 | 6:39.73 | 43137 | 73134
3 | 16:15.10 | 3:06.68 | 73135 | 87152
4 | 19:22.03 | 7:05.32 | 87153 | 119059
5 | 26:27.35 | 11:44.38 | 119060 | 171897
6 | 38:11.73 | 4:50.04 | 171898 | 193651
7 | 43:02.02 | 3:48.31 | 193652 | 210782
8 | 46:50.33 | 7:16.54 | 210783 | 243536
9 | 54:07.12 | 6:46.08 | 243537 | 273994
10 | 60:53.20 | 6:44.62 | 273995 | 304356
11 | 67:38.07 | 4:24.13 | 304357 | 324169
12 | 72:02.20 | 5:20.71 | 324170 | 348240
Track 1
Filename C:\EACrips\01 - String Quartet in B flat major, Op.50 No.1 ; 1.Allegro.wav
Pre-gap length 0:00:02.00
Peak level 69.6 %
Track quality 100.0 %
Test CRC 2A1A0547
Copy CRC 2A1A0547
Accurately ripped (confidence 1) [6950A874]
Copy OK
Track 2
Filename C:\EACrips\02 - String Quartet in B flat major, Op.50 No.1 ; 2.Adagio.wav
Peak level 36.2 %
Track quality 100.0 %
Test CRC 6BE76467
Copy CRC 6BE76467
Accurately ripped (confidence 1) [4A8177EE]
Copy OK
Track 3
Filename C:\EACrips\03 - String Quartet in B flat major, Op.50 No.1 ; 3.Menuet. Poco allegretto.wav
Peak level 54.7 %
Track quality 100.0 %
Test CRC 123A004C
Copy CRC 123A004C
Accurately ripped (confidence 1) [65A2CE50]
Copy OK
Track 4
Filename C:\EACrips\04 - String Quartet in B flat major, Op.50 No.1 ; 4.Finale. Vivace.wav
Peak level 62.6 %
Track quality 100.0 %
Test CRC 27260DF8
Copy CRC 27260DF8
Accurately ripped (confidence 1) [59F65438]
Copy OK
Track 5
Filename C:\EACrips\05 - String Quartet in C major, Op.50 No.2 ; 1.Vivace.wav
Pre-gap length 0:00:09.60
Peak level 49.7 %
Track quality 100.0 %
Test CRC D82F8451
Copy CRC D82F8451
Accurately ripped (confidence 1) [55D7BF4D]
Copy OK
Track 6
Filename C:\EACrips\06 - String Quartet in C major, Op.50 No.2 ; 2.Adagio.wav
Peak level 31.6 %
Track quality 100.0 %
Test CRC EE55D6A2
Copy CRC EE55D6A2
Accurately ripped (confidence 1) [7AAFBC16]
Copy OK
Track 7
Filename C:\EACrips\07 - String Quartet in C major, Op.50 No.2 ; 3.Menuet. Allegro.wav
Peak level 75.8 %
Track quality 100.0 %
Test CRC F310163B
Copy CRC F310163B
Accurately ripped (confidence 1) [DAAD2D2E]
Copy OK
Track 8
Filename C:\EACrips\08 - String Quartet in C major, Op.50 No.2 ; 4.Finale. Vivace assai.wav
Peak level 64.4 %
Track quality 100.0 %
Test CRC C0371482
Copy CRC C0371482
Accurately ripped (confidence 1) [767E74A2]
Copy OK
Track 9
Filename C:\EACrips\09 - String Quartet in E flat major, Op.50 No.3 ; 1.Allegro con brio.wav
Pre-gap length 0:00:09.69
Peak level 64.5 %
Track quality 99.9 %
Test CRC D6858A68
Copy CRC D6858A68
Accurately ripped (confidence 1) [AF623D21]
Copy OK
Track 10
Filename C:\EACrips\10 - String Quartet in E flat major, Op.50 No.3 ; 2.Andante o piu tosto allegretto.wav
Peak level 46.3 %
Track quality 100.0 %
Test CRC 41884476
Copy CRC 41884476
Accurately ripped (confidence 1) [06DBA039]
Copy OK
Track 11
Filename C:\EACrips\11 - String Quartet in E flat major, Op.50 No.3 ; 3.Menuet. Allegretto.wav
Peak level 52.4 %
Track quality 100.0 %
Test CRC CC4BBEF4
Copy CRC CC4BBEF4
Accurately ripped (confidence 1) [BC5D3E1D]
Copy OK
Track 12
Filename C:\EACrips\12 - String Quartet in E flat major, Op.50 No.3 ; 4.Finale. Presto.wav
Peak level 50.3 %
Track quality 100.0 %
Test CRC D4AA5678
Copy CRC D4AA5678
Accurately ripped (confidence 1) [BB23E2A8]
Copy OK
All tracks accurately ripped
No errors occurred
End of status report

CD 2

Exact Audio Copy V0.99 prebeta 5 from 4. May 2009
EAC extraction logfile from 20. February 2011, 21:09
Auryn Quartet / Haydn String Quartets Op.50 [Disc 2]
Used drive : TSSTcorpCDDVDW SH-S203D Adapter: 4 ID: 1
Read mode : Secure
Utilize accurate stream : Yes
Defeat audio cache : Yes
Make use of C2 pointers : No
Read offset correction : 6
Overread into Lead-In and Lead-Out : No
Fill up missing offset samples with silence : Yes
Delete leading and trailing silent blocks : No
Null samples used in CRC calculations : Yes
Used interface : Native Win32 interface for Win NT & 2000
Gap handling : Appended to previous track
Used output format : User Defined Encoder
Selected bitrate : 1024 kBit/s
Quality : High
Add ID3 tag : No
Command line compressor : C:\Program Files\Exact Audio Copy\FLAC\FLAC.EXE
Additional command line options : -6 -V -T "ARTIST=%a" -T "TITLE=%t" -T "ALBUM=%g" -T "DATE=%y" -T "TRACKNUMBER=%n" -T "GENRE=%m" -T "COMMENT=%e" %s -o %d
TOC of the extracted CD
Track | Start | Length | Start sector | End sector
---------------------------------------------------------
1 | 0:00.00 | 8:34.10 | 0 | 38559
2 | 8:34.10 | 8:07.41 | 38560 | 75125
3 | 16:41.51 | 3:42.57 | 75126 | 91832
4 | 20:24.33 | 2:16.09 | 91833 | 102041
5 | 22:40.42 | 7:18.56 | 102042 | 134947
6 | 29:59.23 | 3:57.17 | 134948 | 152739
7 | 33:56.40 | 3:43.29 | 152740 | 169493
8 | 37:39.69 | 5:44.29 | 169494 | 195322
9 | 43:24.23 | 9:20.43 | 195323 | 237365
10 | 52:44.66 | 6:03.02 | 237366 | 264592
11 | 58:47.68 | 4:01.38 | 264593 | 282705
12 | 62:49.31 | 7:38.30 | 282706 | 317085
Track 1
Filename C:\EACrips\01 - String Quartet in F sharp minor, Op.50 No.4 ; 1.Spiritoso.wav
Pre-gap length 0:00:02.00
Peak level 70.3 %
Track quality 100.0 %
Test CRC 58C5A760
Copy CRC 58C5A760
Accurately ripped (confidence 1) [68710E59]
Copy OK
Track 2
Filename C:\EACrips\02 - String Quartet in F sharp minor, Op.50 No.4 ; 2.Andante.wav
Peak level 54.5 %
Track quality 100.0 %
Test CRC 2C0CC9A2
Copy CRC 2C0CC9A2
Accurately ripped (confidence 1) [643E7966]
Copy OK
Track 3
Filename C:\EACrips\03 - String Quartet in F sharp minor, Op.50 No.4 ; 3.Menuet. Poco allegretto.wav
Peak level 67.8 %
Track quality 100.0 %
Test CRC A5AC4C69
Copy CRC A5AC4C69
Accurately ripped (confidence 1) [E0704450]
Copy OK
Track 4
Filename C:\EACrips\04 - String Quartet in F sharp minor, Op.50 No.4 ; 4.Finale; Fuga. Allegro molto.wav
Peak level 84.8 %
Track quality 99.9 %
Test CRC 64AA6826
Copy CRC 64AA6826
Accurately ripped (confidence 1) [8ABD3B91]
Copy OK
Track 5
Filename C:\EACrips\05 - String Quartet in F major, Op.50 No.5 ; 1.Allegro moderato.wav
Pre-gap length 0:00:10.02
Peak level 65.2 %
Track quality 100.0 %
Test CRC 839279CC
Copy CRC 839279CC
Accurately ripped (confidence 1) [1109E5E9]
Copy OK
Track 6
Filename C:\EACrips\06 - String Quartet in F major, Op.50 No.5 ; 2.Poco adagio.wav
Peak level 20.6 %
Track quality 100.0 %
Test CRC 2F57435A
Copy CRC 2F57435A
Accurately ripped (confidence 1) [00CBB4D0]
Copy OK
Track 7
Filename C:\EACrips\07 - String Quartet in F major, Op.50 No.5 ; 3.Tempo di menuet. Allegretto.wav
Peak level 51.6 %
Track quality 100.0 %
Test CRC E9264435
Copy CRC E9264435
Accurately ripped (confidence 1) [91A3FB3A]
Copy OK
Track 8
Filename C:\EACrips\08 - String Quartet in F major, Op.50 No.5 ; 4.Finale. Vivace.wav
Peak level 59.8 %
Track quality 100.0 %
Test CRC 676BCBBB
Copy CRC 676BCBBB
Accurately ripped (confidence 1) [AFD91195]
Copy OK
Track 9
Filename C:\EACrips\09 - String Quartet in D major, Op.50 No.6 ; 1.Allegro.wav
Pre-gap length 0:00:09.31
Peak level 64.3 %
Track quality 100.0 %
Test CRC 128ACA69
Copy CRC 128ACA69
Accurately ripped (confidence 1) [BEF01071]
Copy OK
Track 10
Filename C:\EACrips\10 - String Quartet in D major, Op.50 No.6 ; 2.Poco adagio.wav
Peak level 42.6 %
Track quality 100.0 %
Test CRC 3F4AA571
Copy CRC 3F4AA571
Accurately ripped (confidence 1) [E3131104]
Copy OK
Track 11
Filename C:\EACrips\11 - String Quartet in D major, Op.50 No.6 ; 3.Menuet. Poco allegretto.wav
Peak level 60.5 %
Track quality 100.0 %
Test CRC B8CE3B8C
Copy CRC B8CE3B8C
Accurately ripped (confidence 1) [ECF0065A]
Copy OK
Track 12
Filename C:\EACrips\12 - String Quartet in D major, Op.50 No.6 ; 4.Finale. Vivace.wav
Peak level 49.0 %
Track quality 100.0 %
Test CRC 44EB8191
Copy CRC 44EB8191
Accurately ripped (confidence 1) [5F8C2CB1]
Copy OK
All tracks accurately ripped
No errors occurred
End of status report

Содержание индексной карты (.CUE)


CD 1

REM GENRE Classical
REM DATE 2009
REM DISCID BB12230C
REM COMMENT "ExactAudioCopy v0.99pb5"
FILE "01 - String Quartet in B flat major, Op.50 No.1 ; 1.Allegro.wav" WAVE
TRACK 01 AUDIO
INDEX 01 00:00:00
FILE "02 - String Quartet in B flat major, Op.50 No.1 ; 2.Adagio.wav" WAVE
TRACK 02 AUDIO
INDEX 01 00:00:00
FILE "03 - String Quartet in B flat major, Op.50 No.1 ; 3.Menuet. Poco allegretto.wav" WAVE
TRACK 03 AUDIO
INDEX 01 00:00:00
FILE "04 - String Quartet in B flat major, Op.50 No.1 ; 4.Finale. Vivace.wav" WAVE
TRACK 04 AUDIO
INDEX 01 00:00:00
TRACK 05 AUDIO
INDEX 00 06:55:47
FILE "05 - String Quartet in C major, Op.50 No.2 ; 1.Vivace.wav" WAVE
INDEX 01 00:00:00
FILE "06 - String Quartet in C major, Op.50 No.2 ; 2.Adagio.wav" WAVE
TRACK 06 AUDIO
INDEX 01 00:00:00
FILE "07 - String Quartet in C major, Op.50 No.2 ; 3.Menuet. Allegro.wav" WAVE
TRACK 07 AUDIO
INDEX 01 00:00:00
FILE "08 - String Quartet in C major, Op.50 No.2 ; 4.Finale. Vivace assai.wav" WAVE
TRACK 08 AUDIO
INDEX 01 00:00:00
TRACK 09 AUDIO
INDEX 00 07:06:60
FILE "09 - String Quartet in E flat major, Op.50 No.3 ; 1.Allegro con brio.wav" WAVE
INDEX 01 00:00:00
FILE "10 - String Quartet in E flat major, Op.50 No.3 ; 2.Andante o piu tosto allegretto.wav" WAVE
TRACK 10 AUDIO
INDEX 01 00:00:00
FILE "11 - String Quartet in E flat major, Op.50 No.3 ; 3.Menuet. Allegretto.wav" WAVE
TRACK 11 AUDIO
INDEX 01 00:00:00
FILE "12 - String Quartet in E flat major, Op.50 No.3 ; 4.Finale. Presto.wav" WAVE
TRACK 12 AUDIO
INDEX 01 00:00:00

CD 2

REM GENRE Classical
REM DATE 2009
REM DISCID 8E10830C
REM COMMENT "ExactAudioCopy v0.99pb5"
FILE "01 - String Quartet in F sharp minor, Op.50 No.4 ; 1.Spiritoso.wav" WAVE
TRACK 01 AUDIO
INDEX 01 00:00:00
FILE "02 - String Quartet in F sharp minor, Op.50 No.4 ; 2.Andante.wav" WAVE
TRACK 02 AUDIO
INDEX 01 00:00:00
FILE "03 - String Quartet in F sharp minor, Op.50 No.4 ; 3.Menuet. Poco allegretto.wav" WAVE
TRACK 03 AUDIO
INDEX 01 00:00:00
FILE "04 - String Quartet in F sharp minor, Op.50 No.4 ; 4.Finale; Fuga. Allegro molto.wav" WAVE
TRACK 04 AUDIO
INDEX 01 00:00:00
TRACK 05 AUDIO
INDEX 00 02:06:07
FILE "05 - String Quartet in F major, Op.50 No.5 ; 1.Allegro moderato.wav" WAVE
INDEX 01 00:00:00
FILE "06 - String Quartet in F major, Op.50 No.5 ; 2.Poco adagio.wav" WAVE
TRACK 06 AUDIO
INDEX 01 00:00:00
FILE "07 - String Quartet in F major, Op.50 No.5 ; 3.Tempo di menuet. Allegretto.wav" WAVE
TRACK 07 AUDIO
INDEX 01 00:00:00
FILE "08 - String Quartet in F major, Op.50 No.5 ; 4.Finale. Vivace.wav" WAVE
TRACK 08 AUDIO
INDEX 01 00:00:00
TRACK 09 AUDIO
INDEX 00 05:34:73
FILE "09 - String Quartet in D major, Op.50 No.6 ; 1.Allegro.wav" WAVE
INDEX 01 00:00:00
FILE "10 - String Quartet in D major, Op.50 No.6 ; 2.Poco adagio.wav" WAVE
TRACK 10 AUDIO
INDEX 01 00:00:00
FILE "11 - String Quartet in D major, Op.50 No.6 ; 3.Menuet. Poco allegretto.wav" WAVE
TRACK 11 AUDIO
INDEX 01 00:00:00
FILE "12 - String Quartet in D major, Op.50 No.6 ; 4.Finale. Vivace.wav" WAVE
TRACK 12 AUDIO
INDEX 01 00:00:00
[doutdess.info].t261981.torrent
Torrent: Registered [ 2018-04-18 08:55 ] · 64DB20135E751779C93DFE6C2A463FEA5DEB537B

15 KB

Status: checked
Completed: 0 times
Size: 607 MB
(Classical) Haydn - String Quartets Op. 50 - Auryn-Quartett - 2009, FLAC (tracks+.cue) lossless скачать торрент бесплатно и без регистрации

[Profile] [PM]
Forum Topic Author Size
Вокальная музыка в lossless ((classical/operetta)) Schönes bleibt. Unvergessene Tenöre bei WDR 4 / Прекрасное остаётся - 2000, FLAC (image+.cue) lossless Vi$itReal 401 MB
Вокальная и хоровая музыка lossy (Classical (Lieder)) (Lieder) Norman Bailey - Songs of Hugo Wolf - 1979, MP3 (tracks) 320 kbps RelizMAN 120 MB
Концерт для инструмента с оркестром в lossless (Classical ) Top 20 CDs for your Classical Music Collection - ClassicalCDguide.com: 02 - W. A. Mozart - Great Piano Concertos N 20 - 25 (1997) APE (tracks), 450-566 kb/s RelizMAN 582 MB
Концерт для инструмента с оркестром в lossless (Classical ) Top 20 CDs for your Classical Music Collection - ClassicalCDguide.com: 04 - Bach: Die Brandenburgische Konzerte - Orchestra of the Age of Enlightenment 2 CD (1999) APE (tracks), 610-769... RelizMAN 462 MB
Оркестровая музыка в lossless (Classical ) Top 20 CDs for your Classical Music Collection - ClassicalCDguide.com: 06 - Igor Stravinsky; Petroushka, Le Sacre du Printemps - Columbia Symphony Orchestra (Sony 1990) APE (tracks),... Vi$itReal 274 MB
Камерная инструментальная музыка в lossless (Classical ) Top 20 CDs for your Classical Music Collection - ClassicalCDguide.com: 07 - Franz Schubert - \'Trout\' Quintet & \'Death and the Maiden\' - Amadeus Quartet (DG ... Vi$itReal 343 MB
Камерная инструментальная музыка в lossless (Classical ) Top 20 CDs for your Classical Music Collection - ClassicalCDguide.com: 10 - Georges Bizet; Carmen - Sir Thomas Beecham, de Los Angeles, Gedda, Michau, Blanc (EMI 2000) аре (по-треково),... Vi$itReal 745 MB
Камерная инструментальная музыка в lossless (Classical ) Top 20 CDs for your Classical Music Collection - ClassicalCDguide.com: 12 - Франц Шуберт - Симфония No. 3, Unfinished 39; - Carlos Kleiber и Wiener Philharmoniker (DG 1... Vi$itReal 186 MB
Display posts:    

Current time is: 22-Jul 09:02

All times are UTC + 3



You cannot post new topics in this forum
You cannot reply to topics in this forum
You cannot edit your posts in this forum
You cannot delete your posts in this forum
You cannot vote in polls in this forum
You cannot attach files in this forum
You can download files in this forum