Reply to topic
DL-List and Torrent activity [Update пиров]
Size:  1.12 GB   |    Registered:  1 month 10 days   |    Completed:  1 time
Seeders:  792  [  0 KB/s  ]   Leechers:  17  [  0 KB/s  ]  
 
     
 
 
Author Message

Vi$itReal ®

12

Post 12-Jun-2019 11:50

[Quote]

Helene Mercier & Louis Lortie / Rachmaninoff - Piano Duets
Формат записи/Источник записи: [TR24][OF]
Наличие водяных знаков: Нет
Год издания/переиздания диска: 2015
Жанр: Classical
Издатель (лейбл): Chandos
Продолжительность: 01:18:30
Наличие сканов в содержимом раздачи: Буклет PDF
Треклист:
Rachmaninov: Suite No. 1 for 2 Pianos in G Minor, Op. 5 "Fantaisie tableaux" 22:21
01. I. Barcarolle: Allegretto 7:39
02. II. La nuit… l'amour: Adagio sostenuto 5:55
03. III. Les larmes: Largo di molto 6:03
04. IV. Paques: Allegro maestoso 2:44
Rachmaninov: Suite No. 2 for Two Pianos, Op. 17 22:44
05. I. Introduction: Alla marcia 3:58
06. II. Valse: Presto 5:43
07. III. Romance: Andantino 6:32
08. IV. Tarantelle: Presto 6:31
Rachmaninov: Symphonic Dances, Op. 45 33:23
09. I. Non allegro 11:19
10. II. Andante con moto (Tempo di valse) 9:01
11. III. Lento assai - Allegro vivace 13:03-Hélène Mercier (piano), Louis Lortie (piano)
Recorded: 5-7 December 2014
Recording Venue: Potton Hall, Dunwich, Suffolk, UK-Контейнер: FLAC (*.flac)
Тип рипа: tracks
Разрядность: 24/96
Формат: PCM
Количество каналов: 2.0

BackCover

Лог проверки качества

foobar2000 1.4.3 / Dynamic Range Meter 1.1.1log date: 2019-06-12 16:33:41
--------------------------------------------------------------------------------Analyzed: Hélène Mercier & Louis Lortie / Rachmaninoff: Piano Duets--------------------------------------------------------------------------------
DR Peak RMS Duration Track--------------------------------------------------------------------------------DR14 -7.80 dB -26.92 dB 7:39 01-Suite No. 1 for 2 Pianos in G Minor, Op. 5 "Fantaisie tableaux": I. BarcarolleDR14 -3.21 dB -24.54 dB 5:56 02-Suite No. 1 for 2 Pianos in G Minor, Op. 5 "Fantaisie tableaux": II. La nuit, l'amourDR16 -4.05 dB -29.49 dB 6:03 03-Suite No. 1 for 2 Pianos in G Minor, Op. 5 "Fantaisie tableaux": III. Les larmesDR12 -0.09 dB -15.13 dB 2:45 04-Suite No. 1 for 2 Pianos in G Minor, Op. 5 "Fantaisie tableaux": IV. PâquesDR13 -1.63 dB -20.27 dB 3:59 05-Suite No. 2 for 2 Pianos in C Major, Op. 17: I. IntroductionDR15 -3.05 dB -25.25 dB 5:44 06-Suite No. 2 for 2 Pianos in C Major, Op. 17: II. ValseDR15 -4.88 dB -27.14 dB 6:32 07-Suite No. 2 for 2 Pianos in C Major, Op. 17: III. RomanceDR14 -3.28 dB -22.20 dB 6:31 08-Suite No. 2 for 2 Pianos in C Major, Op. 17: IV. TarantelleDR16 -4.27 dB -25.91 dB 11:19 09-Symphonic Dances, Op. 45 (Version for 2 Pianos): I. Non allegroDR15 -5.16 dB -26.18 dB 9:01 10-Symphonic Dances, Op. 45 (Version for 2 Pianos): II. Andante con moto [Tempo di valse]DR14 -2.28 dB -23.54 dB 13:01 11-Symphonic Dances, Op. 45 (Version for 2 Pianos): III. Lento assai--------------------------------------------------------------------------------
Number of tracks: 11Official DR value: DR14
Samplerate: 96000 HzChannels: 2Bits per sample: 24Bitrate: 2023 kbpsCodec: FLAC================================================================================
Источник (релизер): https://www.prestomusic.com/classical/products/8077606--rachmaninoff-piano-duets
[doutdess.info].t341565.torrent
Torrent: Registered [ 2019-06-12 11:50 ] · CC2384FF2193F65FFEE6034DE96A5FB77C9B3C86

46 KB

Status: checked
Completed: 1 times
Size: 1.12 GB
[TR24][OF] Helene Mercier & Louis Lortie - Rachmaninoff - Piano Duets - 2015 (Classical) скачать торрент бесплатно и без регистрации

[Profile] [PM]
Forum Topic Author Size
Классика в современной обработке, Classical Crossover lossy и lossless [TR24][OF] (Hi-Res)Marion Treupel-Franck - Voice of the Soul - Flute Music by Jean Daniel Braun - 2017, FLAC (tracks) lossless, (Classical, Baroque Era) Vi$itReal 678 MB
Этническая музыка Индии lossless [TR24][OF] (Indian Classical, Sitar, World Music) [WEB] Anoushka Shankar - Home - 2015, FLAC (tracks), lossless RelizMAN 598 MB
Саундтреки к играм lossless [TR24][OF] (Score) [WEB] Sudden Strike 4 (Original Game Soundtrack) (by Peter Antovszki) - 2017, FLAC (tracks), lossless RelizMAN 424 MB
Hi-Res stereo и Многоканальная музыка Саундтреки [TR24][OF] 2Cellos - Score - 2017 (Symphonic Rock) RelizMAN 608 MB
Hi-Res stereo классика и классика в современной обработке [TR24][OF] A French Baroque Diva: Arias for Marie Fel by Rameau, Lacoste, Lalande, Rousseau, Fiocco, Mondonville (Carolyn Sampson, Ex Cathedra & Jeffrey Skidmore) - 2014 (Baroque, Opera, Vocal,... Vi$itReal 1.37 GB
Hi-Res stereo классика и классика в современной обработке [TR24][OF] A Sousa Celebration - Royal Scottish National Orchestra, Kristjan Jarvi - 2017 (Classical) Vi$itReal 1.21 GB
Hi-Res stereo классика и классика в современной обработке [TR24][OF] A Vaughan Williams Christmas - Chapel Choir Of The Royal Hospital Chelsea, William Vann - 2018 (Classical) Vi$itReal 1.18 GB
Hi-Res stereo классика и классика в современной обработке [TR24][OF] A. Vivaldi: Dorilla in Tempe, RV 709 (Romina Basso, Serena Malfi, Marina de Liso, Lucia Cirillo, Sonia Prina|Coro della Radiotelevisione Svizzera I Barocchisti, Diego Fasolis) - 2017... Vi$itReal 2.88 GB
Display posts:    

Current time is: 22-Jul 22:33

All times are UTC + 3



You cannot post new topics in this forum
You cannot reply to topics in this forum
You cannot edit your posts in this forum
You cannot delete your posts in this forum
You cannot vote in polls in this forum
You cannot attach files in this forum
You can download files in this forum