Reply to topic
DL-List and Torrent activity [Update пиров]
Size:  322 MB   |    Registered:  3 years 8 months   |    Completed:  0 times
Seeders:  639  [  0 KB/s  ]   Leechers:  28  [  0 KB/s  ]  
 
     
 
 
Author Message

RelizMAN ®

11

Post 05-Oct-2015 00:31

[Quote]

Levantis / Mother & baby
Жанр: New Age
Страна-производитель диска (релиза): England
Год издания: 2001
Издатель (лейбл): ABM Company Ltd./Hallmark
Номер по каталогу: HALMCD1030
Аудиокодек: FLAC (*.flac)
Тип рипа: tracks+.cue
Битрейт аудио: lossless
Продолжительность: 1:01:20.
Источник (релизер): clustert
Наличие сканов в содержимом раздачи: да
Треклист:
01. Heartbeat (The beginning) [0:06:42.51]
02. Connection [0:06:42.41]
03. Intimate moments [0:06:06.32]
04. Gift of love [0:02:46.13]
05. Soothing sounds [0:06:32.17]
06. Just us (Togetherness) [0:03:00.41]
07. Butterflies [0:02:53.70]
08. Tenderness [0:04:36.62]
09. Precious [0:05:42.42]
10. Sweet Caress [0:06:58.04]
11. Growing miracle [0:01:55.66]
12. A new life [0:07:22.39]

Лог создания рипа

Exact Audio Copy V1.0 beta 3 from 29. August 2011
Отчёт EAC об извлечении, выполненном 13. июня 2015, 16:31
Levantis / Mother & baby
Дисковод: ASUS DRW-1814BLT Adapter: 4 ID: 0
Режим чтения : ДостоверностьИспользование точного потока : ДаОтключение кэша аудио : ДаИспользование указателей C2 : Нет
Коррекция смещения при чтении : 6Способность читать области Lead-in и Lead-out : НетЗаполнение пропущенных сэмплов тишиной : ДаУдаление блоков с тишиной в начале и конце : НетПри вычислениях CRC использовались нулевые сэмплы : ДаИнтерфейс : Встроенный Win32-интерфейс для Win NT/2000Обработка зазоров : Добавлено к предыдущему треку
Выходной формат : Пользовательский кодировщикВыбранный битрейт : 128 kBit/sКачество : ВысокийДобавление ID3-тега : НетУтилита сжатия : C:\Program Files\Exact Audio Copy\Flac\flac.exeДополнительные параметры : -V -8 -T "Genre=%genre%" -T "Artist=%artist%" -T "Title=%title%" -T "Album=%albumtitle%" -T "Date=%year%" -T "Tracknumber=%tracknr%" -T "Comment=EAC1.0b2 FLAC -8" %source%
TOC извлечённого CD
Трек | Старт | Длительность | Начальный сектор | Конечный сектор --------------------------------------------------------------------- 1 | 0:00.00 | 6:42.51 | 0 | 30200 2 | 6:42.51 | 6:42.41 | 30201 | 60391 3 | 13:25.17 | 6:06.32 | 60392 | 87873 4 | 19:31.49 | 2:46.13 | 87874 | 100336 5 | 22:17.62 | 6:32.17 | 100337 | 129753 6 | 28:50.04 | 3:00.41 | 129754 | 143294 7 | 31:50.45 | 2:53.70 | 143295 | 156339 8 | 34:44.40 | 4:36.62 | 156340 | 177101 9 | 39:21.27 | 5:42.42 | 177102 | 202793 10 | 45:03.69 | 6:58.04 | 202794 | 234147 11 | 52:01.73 | 1:55.66 | 234148 | 242838 12 | 53:57.64 | 7:22.39 | 242839 | 276027
Трек 1
Имя файла R:\Раздача 48\Levantis - 2001 - Mother & Baby\01 Heartbeat (The beginning).wav
Длина предзазора 0:00:02.00
Пиковый уровень 99.8 % Скорость извлечения 4.4 X Качество трека 99.9 % CRC теста 35BCC814 CRC копии 35BCC814 Трек не обнаружен в базе AccurateRip Копирование... OK
Трек 2
Имя файла R:\Раздача 48\Levantis - 2001 - Mother & Baby\02 Connection.wav
Пиковый уровень 99.8 % Скорость извлечения 6.4 X Качество трека 100.0 % CRC теста 2F9A2D96 CRC копии 2F9A2D96 Трек не обнаружен в базе AccurateRip Копирование... OK
Трек 3
Имя файла R:\Раздача 48\Levantis - 2001 - Mother & Baby\03 Intimate moments.wav
Пиковый уровень 99.8 % Скорость извлечения 7.1 X Качество трека 100.0 % CRC теста 7D90DFBE CRC копии 7D90DFBE Трек не обнаружен в базе AccurateRip Копирование... OK
Трек 4
Имя файла R:\Раздача 48\Levantis - 2001 - Mother & Baby\04 Gift of love.wav
Пиковый уровень 99.8 % Скорость извлечения 6.8 X Качество трека 100.0 % CRC теста D52A06C7 CRC копии D52A06C7 Трек не обнаружен в базе AccurateRip Копирование... OK
Трек 5
Имя файла R:\Раздача 48\Levantis - 2001 - Mother & Baby\05 Soothing sounds.wav
Пиковый уровень 99.8 % Скорость извлечения 8.1 X Качество трека 100.0 % CRC теста 22841C4B CRC копии 22841C4B Трек не обнаружен в базе AccurateRip Копирование... OK
Трек 6
Имя файла R:\Раздача 48\Levantis - 2001 - Mother & Baby\06 Just us (Togetherness).wav
Пиковый уровень 99.8 % Скорость извлечения 7.7 X Качество трека 100.0 % CRC теста CBCC479D CRC копии CBCC479D Трек не обнаружен в базе AccurateRip Копирование... OK
Трек 7
Имя файла R:\Раздача 48\Levantis - 2001 - Mother & Baby\07 Butterflies.wav
Пиковый уровень 99.8 % Скорость извлечения 5.7 X Качество трека 99.9 % CRC теста 54115A0E CRC копии 54115A0E Трек не обнаружен в базе AccurateRip Копирование... OK
Трек 8
Имя файла R:\Раздача 48\Levantis - 2001 - Mother & Baby\08 Tenderness.wav
Пиковый уровень 99.8 % Скорость извлечения 8.8 X Качество трека 100.0 % CRC теста 25083813 CRC копии 25083813 Трек не обнаружен в базе AccurateRip Копирование... OK
Трек 9
Имя файла R:\Раздача 48\Levantis - 2001 - Mother & Baby\09 Precious.wav
Пиковый уровень 99.8 % Скорость извлечения 9.4 X Качество трека 100.0 % CRC теста 681CB78D CRC копии 681CB78D Трек не обнаружен в базе AccurateRip Копирование... OK
Трек 10
Имя файла R:\Раздача 48\Levantis - 2001 - Mother & Baby\10 Sweet Caress.wav
Пиковый уровень 99.8 % Скорость извлечения 10.0 X Качество трека 100.0 % CRC теста 33B7D94F CRC копии 33B7D94F Трек не обнаружен в базе AccurateRip Копирование... OK
Трек 11
Имя файла R:\Раздача 48\Levantis - 2001 - Mother & Baby\11 Growing miracle.wav
Пиковый уровень 99.8 % Скорость извлечения 5.7 X Качество трека 99.9 % CRC теста 36638EEA CRC копии 36638EEA Трек не обнаружен в базе AccurateRip Копирование... OK
Трек 12
Имя файла R:\Раздача 48\Levantis - 2001 - Mother & Baby\12 A new life.wav
Пиковый уровень 99.8 % Скорость извлечения 9.1 X Качество трека 100.0 % CRC теста 91671E5A CRC копии 91671E5A Трек не обнаружен в базе AccurateRip Копирование... OK
Ни одного трека нет в базе AccurateRip
Ошибок не произошло
Конец отчёта
==== Контрольная сумма отчёта A21B93DAFA32526BA15769A6EF8440601952E4C6DC31BE2A41D208916CA7DA2E ====

Содержание индексной карты (.CUE)

REM GENRE "New Age"REM DATE 2001REM DISCID 950E600CREM COMMENT "ExactAudioCopy v1.0b3"PERFORMER "Levantis"TITLE "Mother & baby"FILE "01 Heartbeat (The beginning).wav" WAVE TRACK 01 AUDIO TITLE "Heartbeat (The beginning)" PERFORMER "Levantis" INDEX 01 00:00:00FILE "02 Connection.wav" WAVE TRACK 02 AUDIO TITLE "Connection" PERFORMER "Levantis" INDEX 01 00:00:00FILE "03 Intimate moments.wav" WAVE TRACK 03 AUDIO TITLE "Intimate moments" PERFORMER "Levantis" INDEX 01 00:00:00FILE "04 Gift of love.wav" WAVE TRACK 04 AUDIO TITLE "Gift of love" PERFORMER "Levantis" INDEX 01 00:00:00FILE "05 Soothing sounds.wav" WAVE TRACK 05 AUDIO TITLE "Soothing sounds" PERFORMER "Levantis" INDEX 01 00:00:00FILE "06 Just us (Togetherness).wav" WAVE TRACK 06 AUDIO TITLE "Just us (Togetherness)" PERFORMER "Levantis" INDEX 01 00:00:00FILE "07 Butterflies.wav" WAVE TRACK 07 AUDIO TITLE "Butterflies" PERFORMER "Levantis" INDEX 01 00:00:00FILE "08 Tenderness.wav" WAVE TRACK 08 AUDIO TITLE "Tenderness" PERFORMER "Levantis" INDEX 01 00:00:00FILE "09 Precious.wav" WAVE TRACK 09 AUDIO TITLE "Precious" PERFORMER "Levantis" INDEX 01 00:00:00FILE "10 Sweet Caress.wav" WAVE TRACK 10 AUDIO TITLE "Sweet Caress" PERFORMER "Levantis" INDEX 01 00:00:00FILE "11 Growing miracle.wav" WAVE TRACK 11 AUDIO TITLE "Growing miracle" PERFORMER "Levantis" INDEX 01 00:00:00FILE "12 A new life.wav" WAVE TRACK 12 AUDIO TITLE "A new life" PERFORMER "Levantis" INDEX 01 00:00:00

[doutdess.info].t81101.torrent
Torrent: Registered [ 2015-10-05 00:30 ] · ADE907DBDFF738B5E6E901DA3AD60EC187F8851C

14 KB

Status: checked
Completed: 0 times
Size: 322 MB
(New Age) Levantis - Mother & baby - 2001, FLAC (tracks+.cue), lossless скачать торрент бесплатно и без регистрации

[Profile] [PM]
Forum Topic Author Size
NewAge & Meditative lossless (New Age) Al Gromer Khan & Emin Corrado - Tantra Electronica - 2004, FLAC (tracks+.cue), lossless RelizMAN 284 MB
NewAge & Meditative lossless (New Age) Al Gromer Khan - Negus - The Royal Principle - 2008, FLAC (tracks+.cue), lossless RelizMAN 227 MB
NewAge & Meditative lossless (New Age) Amethystium - 2005 - "Transversa" [APE (image + .cue)], lossless RelizMAN 437 MB
NewAge & Meditative lossless (New Age) Anima - Temple of the Stars - 2010, FLAC (tracks+.cue), lossless RelizMAN 376 MB
NewAge & Meditative lossless (New Age) Anne Linnet - Relax, No. 1 - 2003, FLAC (tracks+.cue), lossless RelizMAN 312 MB
NewAge & Meditative lossless (New Age) Anthony Miles - Music For Children - 1995, APE (image+.cue) lossless RelizMAN 212 MB
NewAge & Meditative lossless (New Age) Anuragi - Highway Back Home (1990), Morning & Evening Meditation (1992), APE (image + .cue), lossless RelizMAN 331 MB
NewAge & Meditative lossless (New Age) Asha - Chosen by You - 2002, FLAC (tracks+.cue), lossless RelizMAN 350 MB
Display posts:    

Current time is: 24-Jun 19:44

All times are UTC + 3



You cannot post new topics in this forum
You cannot reply to topics in this forum
You cannot edit your posts in this forum
You cannot delete your posts in this forum
You cannot vote in polls in this forum
You cannot attach files in this forum
You can download files in this forum