Ответить на тему
Статистика раздачи [Обновить пиров]
Размер:  283 MB   |    Зарегистрирован:  7 месяцев 15 дней   |    Скачан:  1 раз
Сидов:  527  [  0 KB/s  ]   Личеров:  44  [  0 KB/s  ]  
 
     
 
 
Автор Сообщение

Vi$itReal ®

12

Создавать темы 09-Авг-2018 22:00

[Цитировать]

Luca Francesconi - Etymo; Da Capo; A fuoco; Animus - IRCAM • Ensemble intercontemporain, Susanna Mälkki
Жанр: Classical
Страна-производитель диска: Germany
Год издания диска: 2008
Издатель (лейбл): Kairos
Номер по каталогу: 0012712KAI
Дата записи: 2006, 2007
Аудиокодек: FLAC
Тип рипа: image+.cue
Битрейт аудио: lossless
Продолжительность: 69:15
Источник: собственный рип
Наличие сканов в содержимом раздачи: да
Треклист:
Luca Francesconi (*1956)
[1] Etymo (1994)
For soprano, electronics and ensemble
[2] Da Capo (1985-1986)
For 9 instruments
[3] A fuoco, 4° studio sulla memoria (1995)
For guitar and ensemble
[4] Animus (1995)
For trombone and electronics
Исполнители:
Barbara Hannigan soprano
Pablo Márquez guitar
Benny Sluchin trombone
IRCAM • Ensemble intercontemporain
Susanna Mälkki
conductor

Лог создания рипа

Exact Audio Copy V1.3 from 2. September 2016
EAC extraction logfile from 20. September 2017, 20:22
IRCAM, Ensemble intercontemporain, Susanna Mälkki / Francesconi - Etymo; Da Capo; A fuoco; Animus
Used drive : PLDS DVD-RW DU8A6SH Adapter: 1 ID: 0
Read mode : SecureUtilize accurate stream : YesDefeat audio cache : YesMake use of C2 pointers : No
Read offset correction : 6Overread into Lead-In and Lead-Out : NoFill up missing offset samples with silence : YesDelete leading and trailing silent blocks : NoNull samples used in CRC calculations : YesUsed interface : Native Win32 interface for Win NT & 2000
Used output format : User Defined EncoderSelected bitrate : 128 kBit/sQuality : HighAdd ID3 tag : NoCommand line compressor : C:\Program Files (x86)\Exact Audio Copy\Flac\flac.exeAdditional command line options : -V -8 -T "Date=%year%" -T "Genre=%genre%" %source%
TOC of the extracted CD
Track | Start | Length | Start sector | End sector --------------------------------------------------------- 1 | 0:00.00 | 25:25.46 | 0 | 114420 2 | 25:25.46 | 14:22.09 | 114421 | 179079 3 | 39:47.55 | 14:43.19 | 179080 | 245323 4 | 54:30.74 | 14:44.00 | 245324 | 311623
Range status and errors
Selected range
Filename C:\temp\Francesconi - Etymo; Da Capo; A fuoco; Animus\Francesconi - Etymo; Da Capo; A fuoco; Animus.wav
Peak level 99.9 % Extraction speed 4.0 X Range quality 99.9 % Test CRC 7528B599 Copy CRC 7528B599 Copy OK
No errors occurred
AccurateRip summary
Track 1 accurately ripped (confidence 1) [CF744B35] (AR v1)Track 2 accurately ripped (confidence 1) [FDE08EA2] (AR v1)Track 3 accurately ripped (confidence 1) [D823A882] (AR v1)Track 4 accurately ripped (confidence 1) [42D9CB0F] (AR v1)
All tracks accurately ripped
End of status report
==== Log checksum C1609FCBD00839E385B60AFB6D9E34AE39E8210939C8369831A115A52C5E8894 ====

[doutdess.info].t283343.torrent
Торрент: Зарегистрирован [ 2018-08-09 22:00 ] · FF2664A0E6F0F583DB22007CF478AB539155D72C

23 KB

Статус: проверено
Скачан: 1 раз
Размер: 283 MB
(Classical) Luca Francesconi - Etymo; Da Capo; A fuoco; Animus - Hannigan, Marquez, Sluchin; IRCAM • Ensemble intercontemporain, Susanna Mälkki (Malkki) - 2008, FLAC (image+.cue) lossless скачать торрент бесплатно и без регистрации

[Профиль] [ЛС]
Форум Тема Автор Размер
Вокальная музыка в lossless ((classical/operetta)) Schönes bleibt. Unvergessene Tenöre bei WDR 4 / Прекрасное остаётся - 2000, FLAC (image+.cue) lossless Vi$itReal 401 MB
Вокальная и хоровая музыка lossy (Classical (Lieder)) (Lieder) Norman Bailey - Songs of Hugo Wolf - 1979, MP3 (tracks) 320 kbps RelizMAN 120 MB
Концерт для инструмента с оркестром в lossless (Classical ) Top 20 CDs for your Classical Music Collection - ClassicalCDguide.com: 02 - W. A. Mozart - Great Piano Concertos N 20 - 25 (1997) APE (tracks), 450-566 kb/s RelizMAN 582 MB
Концерт для инструмента с оркестром в lossless (Classical ) Top 20 CDs for your Classical Music Collection - ClassicalCDguide.com: 04 - Bach: Die Brandenburgische Konzerte - Orchestra of the Age of Enlightenment 2 CD (1999) APE (tracks), 610-769... RelizMAN 462 MB
Оркестровая музыка в lossless (Classical ) Top 20 CDs for your Classical Music Collection - ClassicalCDguide.com: 06 - Igor Stravinsky; Petroushka, Le Sacre du Printemps - Columbia Symphony Orchestra (Sony 1990) APE (tracks),... Vi$itReal 274 MB
Камерная инструментальная музыка в lossless (Classical ) Top 20 CDs for your Classical Music Collection - ClassicalCDguide.com: 07 - Franz Schubert - \'Trout\' Quintet & \'Death and the Maiden\' - Amadeus Quartet (DG ... Vi$itReal 343 MB
Камерная инструментальная музыка в lossless (Classical ) Top 20 CDs for your Classical Music Collection - ClassicalCDguide.com: 10 - Georges Bizet; Carmen - Sir Thomas Beecham, de Los Angeles, Gedda, Michau, Blanc (EMI 2000) аре (по-треково),... Vi$itReal 745 MB
Камерная инструментальная музыка в lossless (Classical ) Top 20 CDs for your Classical Music Collection - ClassicalCDguide.com: 12 - Франц Шуберт - Симфония No. 3, Unfinished 39; - Carlos Kleiber и Wiener Philharmoniker (DG 1... Vi$itReal 186 MB
Показать сообщения:    

Текущее время: 25-Мар 21:29

Часовой пояс: UTC + 3



Вы не можете начинать темы
Вы не можете отвечать на сообщения
Вы не можете редактировать свои сообщения
Вы не можете удалять свои сообщения
Вы не можете голосовать в опросах
Вы не можете прикреплять файлы к сообщениям
Вы можете скачивать файлы