Reply to topic
DL-List and Torrent activity [Update пиров]
Size:  859 MB   |    Registered:  1 month 6 days   |    Completed:  3 times
Seeders:  700  [  0 KB/s  ]   Leechers:  40  [  0 KB/s  ]  
 
     
 
 
Author Message

Vi$itReal ®

12

Post 19-Apr-2019 05:50

[Quote]

Ludovico Einaudi - Seven Days Walking (Day 2)-- Формат записи/Источник записи: [TR24][OF]
Наличие водяных знаков: Нет
Год издания: 2019
Жанр: Classical, Piano
Издатель (лейбл): Decca
Продолжительность: 00:51:37
Наличие сканов в содержимом раздачи: Только обложка альбома
Контейнер: FLAC (*.flac)
Тип рипа: tracks
Разрядность: 24/96
Формат: PCM
Количество каналов: 2.0
Источник (релизер): highresaudio.com-Треклист
01. Low Mist Var. 1 (02:44)
02. A Sense of Symmetry (02:36)
03. Ascent (06:12)
04. Golden Butterflies Var. 1 (05:57)
05. Birdsong (05:25)
06. Fox Tracks (04:31)
07. Campfire Var. 1 (06:14)
08. Matches Var. 1 (02:23)
09. The Path Of The Fossils (08:35)
10. Cold Wind Var. 1 (04:15)
11. Low Mist Var. 2 (02:45)-Ludovico Einaudi, piano

Лог проверки качества

foobar2000 1.4 / Dynamic Range Meter 1.1.1log date: 2019-04-19 05:53:02
--------------------------------------------------------------------------------Analyzed: Ludovico Einaudi / Seven Days Walking (Day 2)--------------------------------------------------------------------------------
DR Peak RMS Duration Track--------------------------------------------------------------------------------DR14 -6.90 dB -26.35 dB 2:45 01-Low Mist Var. 1 (Day 2)DR13 -5.44 dB -22.09 dB 2:37 02-A Sense of Symmetry (Day 2)DR12 -0.30 dB -16.84 dB 6:13 03-Ascent (Day 2)DR8 -0.30 dB -14.44 dB 5:57 04-Golden Butterflies Var. 1 (Day 2)DR12 -0.30 dB -17.11 dB 5:25 05-Birdsong (Day 2)DR11 -0.30 dB -15.73 dB 4:32 06-Fox Tracks (Day 2)DR10 -0.30 dB -14.78 dB 6:14 07-Campfire Var. 1 (Day 2)DR11 -3.09 dB -17.26 dB 2:24 08-Matches Var. 1 (Day 2)DR7 -0.30 dB -11.82 dB 8:36 09-The Path Of The Fossils (Day 2)DR12 -4.16 dB -20.42 dB 4:16 10-Cold Wind Var. 1 (Day 2)DR14 -7.02 dB -27.02 dB 2:45 11-Low Mist Var. 2 (Day 2)--------------------------------------------------------------------------------
Number of tracks: 11Official DR value: DR11Samplerate: 96000 HzChannels: 2Bits per sample: 24Bitrate: 2226 kbpsCodec: FLAC================================================================================

Об альбоме (сборнике)

Seven Days Walking’: seven bodies of music to be released over seven consecutive months. The first, ‘Seven Days Walking: Day One’, which interweaves piano and strings in his unmistakable style, is Einaudi’s 14th studio album and will be released on 15th March, on Decca. ‘Seven Days Walking: Day Two’ follows a month later. Each ‘day’ is then released, digitally, a month apart, leading up to ‘Day Seven’ which will be released in the autumn in a box-set of the complete Seven Days. Inspiration for the entire project derived from walks that Einaudi would take through the mountains in winter. He explains, "In January last year I often went for long walks in the mountains, always following more or less the same trail. It snowed heavily, and my thoughts roamed free inside the storm, where all shapes, stripped bare by the cold, lost their contours and colours. Perhaps that feeling of extreme essence was the origin of this album." The first album focuses on several main themes, which then recur in different forms on the following albums – seven variations following the same imaginary itinerary. Or the same itinerary, retraced at seven different times.

[doutdess.info].t331908.torrent
Torrent: Registered [ 2019-04-19 05:50 ] · 4F6347F34F5CAF3CCA7EB15FEB62B7A2486E598A

18 KB

Status: checked
Completed: 3 times
Size: 859 MB
[TR24][OF] Ludovico Einaudi - Seven Days Walking (Day 2) - 2019 (Classical, Piano) скачать торрент бесплатно и без регистрации

[Profile] [PM]
Forum Topic Author Size
Классика в современной обработке, Classical Crossover lossy и lossless [TR24][OF] (Hi-Res)Marion Treupel-Franck - Voice of the Soul - Flute Music by Jean Daniel Braun - 2017, FLAC (tracks) lossless, (Classical, Baroque Era) Vi$itReal 678 MB
Этническая музыка Индии lossless [TR24][OF] (Indian Classical, Sitar, World Music) [WEB] Anoushka Shankar - Home - 2015, FLAC (tracks), lossless RelizMAN 598 MB
Саундтреки к играм lossless [TR24][OF] (Score) [WEB] Sudden Strike 4 (Original Game Soundtrack) (by Peter Antovszki) - 2017, FLAC (tracks), lossless RelizMAN 424 MB
Hi-Res stereo и Многоканальная музыка Саундтреки [TR24][OF] 2Cellos - Score - 2017 (Symphonic Rock) RelizMAN 608 MB
Hi-Res stereo классика и классика в современной обработке [TR24][OF] A French Baroque Diva: Arias for Marie Fel by Rameau, Lacoste, Lalande, Rousseau, Fiocco, Mondonville (Carolyn Sampson, Ex Cathedra & Jeffrey Skidmore) - 2014 (Baroque, Opera, Vocal,... Vi$itReal 1.37 GB
Hi-Res stereo классика и классика в современной обработке [TR24][OF] A Sousa Celebration - Royal Scottish National Orchestra, Kristjan Jarvi - 2017 (Classical) Vi$itReal 1.21 GB
Hi-Res stereo классика и классика в современной обработке [TR24][OF] A Vaughan Williams Christmas - Chapel Choir Of The Royal Hospital Chelsea, William Vann - 2018 (Classical) Vi$itReal 1.18 GB
Hi-Res stereo классика и классика в современной обработке [TR24][OF] A. Vivaldi: Dorilla in Tempe, RV 709 (Romina Basso, Serena Malfi, Marina de Liso, Lucia Cirillo, Sonia Prina|Coro della Radiotelevisione Svizzera I Barocchisti, Diego Fasolis) - 2017... Vi$itReal 2.88 GB
Display posts:    

Current time is: 26-May 04:32

All times are UTC + 3



You cannot post new topics in this forum
You cannot reply to topics in this forum
You cannot edit your posts in this forum
You cannot delete your posts in this forum
You cannot vote in polls in this forum
You cannot attach files in this forum
You can download files in this forum