Ответить на тему
Статистика раздачи [Обновить пиров]
Размер:  4,29 GB   |    Зарегистрирован:  7 месяцев 9 дней   |    Скачан:  0 раз
Сидов:  416  [  0 KB/s  ]   Личеров:  44  [  0 KB/s  ]  
 
     
 
 
Автор Сообщение

Vi$itReal ®

12

Создавать темы 09-Авг-2018 01:25

[Цитировать]

Maria Joao Pires - Portrait of a Pianist
Год выпуска: 1991
Лейбл: Arthaus Musik / Monarda Arts
Страна-производитель: Austria
Жанр: documentary / biography / classical / piano
Продолжительность: 60 min
Язык: французский / португальский
Перевод: отсутствует
Субтитры: English, French, German
Режиссер: Werner Zeindler
Исполнители: Maria Joao Pires, Augustin Dumay, Michel Portal et al
Треклист (chapters):
01. Mozart's Concerto in A major K. 488 (adagio)
02. Interview
03. Chopin’s Nocturne No.7 in c sharp minor
04. Interview
05. Schumann's "Abschied" from Waldszenen Op. 82
06. Interview
07. Mozart`s Piano Sonata in F major No. 2 K. 280 (Presto)
08. Family Pires at dinner table
09. Poulenc’s Sonata for Clarinet and Piano
10. Interview
11. Beethoven's Piano Sonata No. 17 in D minor, Op. 31 No. 2
12. Interview
13. Brahms - Violin Sonata No.3 in d minor
14. Interview
15. Schubert’s Moments Musicaux No. 2 in A flat major D 780
16. Interview
17. Mozart`s Piano Concerto No.21 in C major (Allegro vivace assai)
Описание:
The Portuguese pianist's return to the concert platform in the mid-1980s, after a break due to ill health, was a triumph. This programme shows her pursuing her professional career with renewed vigour and talking with great frankness and intensity about her life and work. The music Pires plays includes Mozart's Concerto in A major K. 488, Piano Concerto No. 21 K. 467 and Piano Sonata in F major K. 280, Chopin’s Nocturne No.7 in c sharp minor, Schumann's "Abschied" from Waldszenen Op. 82, Poulenc’s Sonata for Clarinet and Piano, Beethoven's Piano Sonata No. 17 in D minor, Brahms`s Violin Sonata No.3 in d minor and Schubert’s Moments Musicaux No. 2 A flat major D 780.
Качество видео: DVD5
Формат/Контейнер: DVDVideo
Видео кодек: MPEG2
Аудио кодек: PCM
Видео поток: YUV, NTSC 4:3 (720x480), VBR ~ 9049.94 kbps avg, 29.970 fps
Аудио поток: Not specified (Linear PCM, 2 ch), CBR 1536 kb/s, 2 ch, 48.0 KHz

DVD-Info

Title: Maria Joao Pires - Portrait of a Pianist
Size: 4.27 Gb ( 4 479 278,00 KBytes ) - DVD-5
Enabled regions: 1, 2, 3, 4, 5, 6, 7, 8
VTS_01 :
Play Length: 00:00:10+00:00:07
Video: NTSC 4:3 (720x480) VBR
VTS_02 :
Play Length: 00:59:38
Video: NTSC 4:3 (720x480) VBR
Audio:
Not specified, LPCM, Delay = 0 mSec
Subtitles:
English
Francais
Deutsch
VTS_03 :
Play Length: 00:02:58
Video: NTSC 16:9 (720x480) VBR, Auto Letterboxed
Audio:
Not specified (LinearPCM, 2 ch)
VTS_04 :
Play Length: 00:02:56
Video: NTSC 16:9 (720x480) VBR, Auto Letterboxed
Audio:
Not specified (LinearPCM, 2 ch)
VTS_05 :
Play Length: 00:02:43
Video: NTSC 16:9 (720x480) VBR, Auto Letterboxed
Audio:
Not specified (LinearPCM, 2 ch)
* Menus Information *
VIDEO_TS Menu
Video:
NTSC 4:3 (720x480) VBR
Audio:
Not specified (LinearPCM, 2 ch)
English Language Unit :
Title Menu
VTS_01 Menu
Video:
NTSC 4:3 (720x480) VBR
Auto Pan&Scan, Auto Letterboxed
Language Unit :
Subpicture Menu
Angle menu
Language Unit :
Language Unit :
Angle menu
Language Unit :
Language Unit :
Angle menu
VTS_02 Menu
Video:
NTSC 4:3 (720x480) VBR
English Language Unit :
Root Menu
VTS_03 Menu
Video:
NTSC 4:3 (720x480) VBR
Auto Pan&Scan, Auto Letterboxed
English Language Unit :
Root Menu
VTS_04 Menu
Video:
NTSC 4:3 (720x480) VBR
Auto Pan&Scan, Auto Letterboxed
English Language Unit :
Root Menu
VTS_05 Menu
Video:
NTSC 4:3 (720x480) VBR
Auto Pan&Scan, Auto Letterboxed
English Language Unit :
Root Menu

Media-Info VTS_02_1.VOB

General
Complete name : D:\Maria Joao Pires - Portrait of a Pianist\VIDEO_TS\VTS_02_1.VOB
Format : MPEG-PS
File size : 1 024 MiB
Duration : 15 min 57 s
Overall bit rate mode : Variable
Overall bit rate : 8 971 kb/s
Writing library : encoded by TMPGEnc Video Mastering Works 5 Version. 5.5.2.107
Video
ID : 224 (0xE0)
Format : MPEG Video
Format version : Version 2
Format profile : [email protected]
Format settings : CustomMatrix / BVOP
Format settings, BVOP : Yes
Format settings, Matrix : Custom
Format settings, GOP : M=3, N=16
Format settings, picture st : Frame
Duration : 15 min 57 s
Bit rate mode : Variable
Bit rate : 7 257 kb/s
Maximum bit rate : 8 100 kb/s
Width : 720 pixels
Height : 480 pixels
Display aspect ratio : 4:3
Frame rate : 29.970 (30000/1001) FPS
Standard : NTSC
Color space : YUV
Chroma subsampling : 4:2:0
Bit depth : 8 bits
Scan type : Interlaced
Scan order : Top Field First
Compression mode : Lossy
Bits/(Pixel*Frame) : 0.701
Time code of first frame : 00:00:00:00
Time code source : Group of pictures header
GOP, Open/Closed : Closed
Stream size : 828 MiB (81%)
Writing library : TMPGEnc Video Mastering Works 5 Version. 5.5.2.107
Color primaries : BT.601 NTSC
Transfer characteristics : BT.601
Matrix coefficients : BT.601
Audio
ID : 189 (0xBD)-160 (0xA0)
Format : PCM
Format settings : Big / Signed
Muxing mode : DVD-Video
Duration : 15 min 57 s
Bit rate mode : Constant
Bit rate : 1 536 kb/s
Channel(s) : 2 channels
Sampling rate : 48.0 kHz
Bit depth : 16 bits
Stream size : 175 MiB (17%)
Menu

Скриншоты

Дополнительная информация

DVD из личной коллекции. Сканы буклета и диска (300 dpi) прилагаются.
Ошибки в оригинальном описании диска (пьесы и композиторы) исправлены в соответствии с треклистом.

[doutdess.info].t283155.torrent
Торрент: Зарегистрирован [ 2018-08-09 01:25 ] · A609C1EDECF880D5962851E52DFA494406B7F90B

23 KB

Статус: проверено
Скачан: 0 раз
Размер: 4,29 GB
Maria Joao Pires - Portrait of a Pianist (Mozart, Chopin, Schubert, Schumann, Beethoven, Brahms, Poulenc) [1991, documentary / biography / classical / piano, DVD5] скачать торрент бесплатно и без регистрации

[Профиль] [ЛС]
Форум Тема Автор Размер
Концерт для инструмента с оркестром в lossless (Classical/Piano) Frederic Chopin - Piano Concerto No.2, Nocturnes (Maria Joao Pires/Christopher Warren-Green) - 2015, FLAC (image+.cue) lossless RelizMAN 317 MB
Сольная инструментальная музыка в lossless (Classical/Piano) Frederic Chopin - The Nocturnes [complete recording] (Maria Joao Pires) - 1996, FLAC (image+.cue), lossless RelizMAN 343 MB
Западноевропейский фолк lossy (Fado) Carlos do Carmo (& Maria Joao Pires, Bernardo Sassetti) - Коллекция 1969-2013 (12 альбомов), MP3, 192-320 kbps RelizMAN 1,52 GB
Hi-Res stereo классика и классика в современной обработке [TR24][OF] Beethoven - Piano Concerto No. 2 & Triple Concerto - Maria Joao Pires, Gordan Nikolitch, Tim Hugh, Lars Vogt, London Symphony Orchestra, Bernard Haitink - 2019 (Classical) Vi$itReal 1,62 GB
Показать сообщения:    

Текущее время: 18-Мар 20:47

Часовой пояс: UTC + 3



Вы не можете начинать темы
Вы не можете отвечать на сообщения
Вы не можете редактировать свои сообщения
Вы не можете удалять свои сообщения
Вы не можете голосовать в опросах
Вы не можете прикреплять файлы к сообщениям
Вы можете скачивать файлы