Reply to topic
DL-List and Torrent activity [Update пиров]
Size:  1.44 GB   |    Registered:  1 year 3 months   |    Completed:  0 times
Seeders:  845  [  0 KB/s  ]   Leechers:  55  [  0 KB/s  ]  
 
     
 
 
Author Message

RelizMAN ®

11

Post 19-Apr-2018 18:25

[Quote]

Olivier Messiaen / Gillian Weir - L'Œuvre d'Orgue - Enregistrement intégral - The Complete Organ Works
Жанр: Classical organ solo
Страна-производитель диска: Made in Great Britain
Год издания диска: 1994
Издатель (лейбл): Collins Classics
Номер по каталогу: 70312
Дата записи: 1994
Аудиокодек: FLAC
Тип рипа: image+.cue
Битрейт аудио: lossless
Продолжительность: 68'59 + 60'18 + 63'50 + 75'25 + 50'04 + 58'19 + 42'12 / Duration 06:58:40
Источник: релизер
сайт-источник/ник/другое: makdelart; Caterina Sforza - работа с cue
Наличие сканов в содержимом раздачи: да

Треклист

CD1

La Nativité de Seigneur1-1 La Vierge et l'Enfant 6:191-2 Les Bergers 5:361-3 Desseins éternels 4:211-4 Le Verbe 12:481-5 Les Enfants de Dieu 4:091-6 Les Anges 3:011-7 Jésus accepte la souffrance 4:281-8 Les Mages 6:451-9 Dieu parmi nous 8:20
Diptyque1-10 Diptyque 11:46

CD2

Les Corps glorieux2-1 I. Subtilité des corps glorieux 6:382-2 II. Les eaux de la grâce 2:582-3 III. L'Ange aux parfums 8:412-4 IV. Combat de la mort et de la vie 14:342-5 V. Force et agilité des corps glorieux 3:392-6 VI. Joie et clarté des corps glorieux 5:072-7 VII. Le Mystère de la Sainte-Trinité 6:50
Verset pour la fête de la dédicace2-8 Verset pour la fête de la dédicace 10:43

CD3

Le Banquet céleste3-1 Le Banquet céleste 7:22Apparition de l'Église éternelle3-2 Apparition de l'Église éternelle 10:44
Livre d'orgue3-3 Reprises par interversion 6:213-4 Pièce en trio (pour le Dimanche de la Sainte-Trinité) 3:013-5 Les Mains de l'abîme (Pour les Temps de Pénitence) 6:053-6 Chants d'oiseaux (Pour le Temps Pascal) 7:563-7 Pièce en trio (Pour le Dimanche de la Sainte-Trinité) 9:003-8 Les Yeux dans les roues (Pour le Dimanche de la Pentecôte) 1:503-9 Soixante-quatre durées 10:27

CD4

Méditations sur le mystère de la Sainte-Trinité4-1 I 9:024-2 II 11:584-3 III 2:454-4 IV 5:514-5 V 9:584-6 VI 7:444-7 VII 6:394-8 VIII 9:394-9 IX 10:44

CD5

L'Ascension5-1 Majesté du Christ demandant sa gloire à son Père 6:035-2 Alléluias sereins d'une âme qui désire le ciel 6:265-3 Transports de joie d'une âme devant la gloire du Christ qui est la sienne 4:235-4 Prière du Christ montant vers son Père 6:54
Messe de la Pentecôte5-5 Entrée (Les Langues de feu) 2:045-6 Offertoire (Les choses visibles et invisibles) 10:515-7 Consécration (Le Don de sagesse) 3:305-8 Communion (Le oiseaux et les sources) 5:325-9 Sortie (Le Vent de l'Esprit) 3:10

CD6

Livre du Saint Sacrement6-1 I. Adoro Te 2:546-2 II. La Source de vie 2:106-3 III. Le Dieu caché 5:426-4 IV. Acte de foi 2:126-5 V. Puer natus est nobis 5:546-6 VI. La Manne et le pain de vie 9:216-7 VII. Les Ressuscités et la Lumière de vie 3:306-8 VIII. Institution de l'Eucharistie 4:296-9 IX. Les Ténèbres 4:086-10 X. La Résurrection du Christ 4:166-11 XI. L'apparition du Christ ressuscité à Marie-Madeleine 12:24

CD7

Livre du Saint Sacrement (cont.)7-1 XII. La Transsubstantiation 7:107-2 XIII. Les deux murailles d'eau 6:437-3 XIV. Prière avant la communion 4:217-4 XV. La joie de la grace 6:107-5 XVI. Prière après la communion 6:357-6 XVII. La Présence multipliée 2:367-7 XVIII. Offrande et Alleluia final 7:38

Исполнители

Olivier Messiaen (1908-1992)
L'Œuvre d'Orgue – Enregistrement intégral — The Complete Organ Works
Gillian Weir, organ
Recorded on the Frobenius organ of Århus Cathedral, Denmark, by kind permission of the organist Anders Riber, on January 25-28 and February 23-25, 1994. Recorded in association with BBC Radio 3.

Лог создания рипа

CD1

Exact Audio Copy V1.3 from 2. September 2016
EAC extraction logfile from 4. April 2018, 21:00
Gillian Weir / Messiaen: The Complete Organ Works (CD1)
Used drive : LENOVO USB_SATA_Burner4 Adapter: 0 ID: 0
Read mode : SecureUtilize accurate stream : YesDefeat audio cache : YesMake use of C2 pointers : No
Read offset correction : 6Overread into Lead-In and Lead-Out : NoFill up missing offset samples with silence : YesDelete leading and trailing silent blocks : NoNull samples used in CRC calculations : YesUsed interface : Installed external ASPI interface
Used output format : User Defined EncoderSelected bitrate : 1024 kBit/sQuality : HighAdd ID3 tag : NoCommand line compressor : C:\Program Files (x86)\Exact Audio Copy\FLAC\FLAC.EXEAdditional command line options : -8 -V -T "TITLE=%title%" -T "ARTIST=%artist%" -T "ALBUMARTIST=%albumartist%" -T "ALBUM=%albumtitle%" -T "DATE=%year%" -T "TRACKNUMBER=%tracknr%" -T "TRACKTOTAL=%numtracks%" -T "GENRE=%genre%" -T "COMMENT=%comment%" -T "PERFORMER=%albuminterpret%" -T "COMPOSER=%composer%" %source% -o %dest%
TOC of the extracted CD
Track | Start | Length | Start sector | End sector --------------------------------------------------------- 1 | 0:00.33 | 6:27.25 | 33 | 29082 2 | 6:27.58 | 5:46.52 | 29083 | 55084 3 | 12:14.35 | 4:24.33 | 55085 | 74917 4 | 16:38.68 | 12:57.52 | 74918 | 133244 5 | 29:36.45 | 4:15.45 | 133245 | 152414 6 | 33:52.15 | 3:12.28 | 152415 | 166842 7 | 37:04.43 | 4:38.27 | 166843 | 187719 8 | 41:42.70 | 6:55.13 | 187720 | 218857 9 | 48:38.08 | 8:35.05 | 218858 | 257487 10 | 57:13.13 | 11:46.65 | 257488 | 310502
Range status and errors
Selected range
Filename C:\EACRip\Messiaen - The Complete Organ Works (Gillian Weir)(1994)[7CD]\CD1\Messiaen - The Complete Organ Works (CD1) - Gillian Weir.wav
Peak level 96.4 % Extraction speed 2.1 X Range quality 99.9 % Test CRC B0AEFF85 Copy CRC B0AEFF85 Copy OK
No errors occurred
AccurateRip summary
Track 1 accurately ripped (confidence 4) [8CA797AC] (AR v2)Track 2 accurately ripped (confidence 4) [B5D66D05] (AR v2)Track 3 accurately ripped (confidence 4) [076BB9C9] (AR v2)Track 4 accurately ripped (confidence 4) [6E0F9A89] (AR v2)Track 5 accurately ripped (confidence 4) [6A579A18] (AR v2)Track 6 accurately ripped (confidence 4) [957EDB65] (AR v2)Track 7 accurately ripped (confidence 4) [CF00FC46] (AR v2)Track 8 accurately ripped (confidence 4) [5BB3AEF1] (AR v2)Track 9 accurately ripped (confidence 4) [49D0F1AC] (AR v2)Track 10 accurately ripped (confidence 4) [BE0B78F9] (AR v2)
All tracks accurately ripped
End of status report
---- CUETools DB Plugin V2.1.6
[CTDB TOCID: dH0nb7Meq0MCHmTV3t4G80u4j9o-] foundSubmit result: dH0nb7Meq0MCHmTV3t4G80u4j9o- has been confirmedTrack | CTDB Status 1 | (5/5) Accurately ripped 2 | (5/5) Accurately ripped 3 | (5/5) Accurately ripped 4 | (5/5) Accurately ripped 5 | (5/5) Accurately ripped 6 | (5/5) Accurately ripped 7 | (5/5) Accurately ripped 8 | (4/5) Accurately ripped 9 | (5/5) Accurately ripped 10 | (5/5) Accurately ripped
==== Log checksum 7460FBA48E06BC8B0CDABD90E95CAEBA8E764D872C7D4F0695C023A2E4D0B2F6 ====

CD2

Exact Audio Copy V1.3 from 2. September 2016
EAC extraction logfile from 4. April 2018, 22:14
Gillian Weir / Messiaen: The Complete Organ Works (CD2)
Used drive : LENOVO USB_SATA_Burner4 Adapter: 0 ID: 0
Read mode : SecureUtilize accurate stream : YesDefeat audio cache : YesMake use of C2 pointers : No
Read offset correction : 6Overread into Lead-In and Lead-Out : NoFill up missing offset samples with silence : YesDelete leading and trailing silent blocks : NoNull samples used in CRC calculations : YesUsed interface : Installed external ASPI interface
Used output format : User Defined EncoderSelected bitrate : 1024 kBit/sQuality : HighAdd ID3 tag : NoCommand line compressor : C:\Program Files (x86)\Exact Audio Copy\FLAC\FLAC.EXEAdditional command line options : -8 -V -T "TITLE=%title%" -T "ARTIST=%artist%" -T "ALBUMARTIST=%albumartist%" -T "ALBUM=%albumtitle%" -T "DATE=%year%" -T "TRACKNUMBER=%tracknr%" -T "TRACKTOTAL=%numtracks%" -T "GENRE=%genre%" -T "COMMENT=%comment%" -T "PERFORMER=%albuminterpret%" -T "COMPOSER=%composer%" %source% -o %dest%
TOC of the extracted CD
Track | Start | Length | Start sector | End sector --------------------------------------------------------- 1 | 0:00.33 | 6:47.05 | 33 | 30562 2 | 6:47.38 | 3:07.20 | 30563 | 44607 3 | 9:54.58 | 8:47.20 | 44608 | 84152 4 | 18:42.03 | 14:45.55 | 84153 | 150582 5 | 33:27.58 | 3:48.20 | 150583 | 167702 6 | 37:16.03 | 5:16.52 | 167703 | 191454 7 | 42:32.55 | 7:03.10 | 191455 | 223189 8 | 49:35.65 | 10:43.23 | 223190 | 271437
Range status and errors
Selected range
Filename C:\EACRip\Messiaen - The Complete Organ Works (Gillian Weir)(1994)[7CD]\CD2\Messiaen - The Complete Organ Works (CD2) - Gillian Weir.wav
Peak level 78.7 % Extraction speed 2.0 X Range quality 99.9 % Test CRC 29F1856B Copy CRC 29F1856B Copy OK
No errors occurred
AccurateRip summary
Track 1 accurately ripped (confidence 4) [D9442CEE] (AR v2)Track 2 accurately ripped (confidence 4) [2E316D46] (AR v2)Track 3 accurately ripped (confidence 4) [82EE25F2] (AR v2)Track 4 accurately ripped (confidence 4) [9EB9E3DC] (AR v2)Track 5 accurately ripped (confidence 4) [56F38090] (AR v2)Track 6 accurately ripped (confidence 4) [0E0D83DA] (AR v2)Track 7 accurately ripped (confidence 4) [07B1BB72] (AR v2)Track 8 accurately ripped (confidence 4) [11FEC593] (AR v2)
All tracks accurately ripped
End of status report
---- CUETools DB Plugin V2.1.6
[CTDB TOCID: WnYBI1Cgh3E2e2_RubY9BDvlLb0-] foundSubmit result: WnYBI1Cgh3E2e2_RubY9BDvlLb0- has been confirmedTrack | CTDB Status 1 | (5/5) Accurately ripped 2 | (5/5) Accurately ripped 3 | (5/5) Accurately ripped 4 | (5/5) Accurately ripped 5 | (5/5) Accurately ripped 6 | (3/5) Accurately ripped 7 | (4/5) Accurately ripped 8 | (4/5) Accurately ripped
==== Log checksum A31A8906BFEC1F986AFC7A6B9F685BCF7705FD3004A39DBAB08B50D55A706C25 ====

CD3

Exact Audio Copy V1.3 from 2. September 2016
EAC extraction logfile from 4. April 2018, 23:26
Gillian Weir / Messiaen: The Complete Organ Works (CD3)
Used drive : LENOVO USB_SATA_Burner4 Adapter: 0 ID: 0
Read mode : SecureUtilize accurate stream : YesDefeat audio cache : YesMake use of C2 pointers : No
Read offset correction : 6Overread into Lead-In and Lead-Out : NoFill up missing offset samples with silence : YesDelete leading and trailing silent blocks : NoNull samples used in CRC calculations : YesUsed interface : Installed external ASPI interface
Used output format : User Defined EncoderSelected bitrate : 1024 kBit/sQuality : HighAdd ID3 tag : NoCommand line compressor : C:\Program Files (x86)\Exact Audio Copy\FLAC\FLAC.EXEAdditional command line options : -8 -V -T "TITLE=%title%" -T "ARTIST=%artist%" -T "ALBUMARTIST=%albumartist%" -T "ALBUM=%albumtitle%" -T "DATE=%year%" -T "TRACKNUMBER=%tracknr%" -T "TRACKTOTAL=%numtracks%" -T "GENRE=%genre%" -T "COMMENT=%comment%" -T "PERFORMER=%albuminterpret%" -T "COMPOSER=%composer%" %source% -o %dest%
TOC of the extracted CD
Track | Start | Length | Start sector | End sector --------------------------------------------------------- 1 | 0:00.32 | 7:30.00 | 32 | 33781 2 | 7:30.32 | 10:51.58 | 33782 | 82664 3 | 18:22.15 | 6:28.37 | 82665 | 111801 4 | 24:50.52 | 3:09.65 | 111802 | 126041 5 | 28:00.42 | 6:09.58 | 126042 | 153774 6 | 34:10.25 | 8:06.55 | 153775 | 190279 7 | 42:17.05 | 9:08.72 | 190280 | 231451 8 | 51:26.02 | 1:57.60 | 231452 | 240286 9 | 53:23.62 | 10:27.00 | 240287 | 287311
Range status and errors
Selected range
Filename C:\EACRip\Messiaen - The Complete Organ Works (Gillian Weir)(1994)[7CD]\CD3\Messiaen - The Complete Organ Works (CD3) - Gillian Weir.wav
Peak level 84.4 % Extraction speed 2.1 X Range quality 100.0 % Test CRC 5C5361CE Copy CRC 5C5361CE Copy OK
No errors occurred
AccurateRip summary
Track 1 accurately ripped (confidence 4) [35617C54] (AR v2)Track 2 accurately ripped (confidence 4) [97AD0D1A] (AR v2)Track 3 accurately ripped (confidence 4) [52EE9577] (AR v2)Track 4 accurately ripped (confidence 4) [587F459D] (AR v2)Track 5 accurately ripped (confidence 4) [DBF23498] (AR v2)Track 6 accurately ripped (confidence 4) [3405CB45] (AR v2)Track 7 accurately ripped (confidence 4) [290F705B] (AR v2)Track 8 accurately ripped (confidence 4) [F2B972C9] (AR v2)Track 9 accurately ripped (confidence 4) [1267F6A5] (AR v2)
All tracks accurately ripped
End of status report
---- CUETools DB Plugin V2.1.6
[CTDB TOCID: e09vkp_7PJkwq7Uj9fRRBl8WC.M-] foundSubmit result: e09vkp_7PJkwq7Uj9fRRBl8WC.M- has been confirmedTrack | CTDB Status 1 | (4/4) Accurately ripped 2 | (4/4) Accurately ripped 3 | (4/4) Accurately ripped 4 | (4/4) Accurately ripped 5 | (4/4) Accurately ripped 6 | (4/4) Accurately ripped 7 | (4/4) Accurately ripped 8 | (4/4) Accurately ripped 9 | (4/4) Accurately ripped
==== Log checksum C0C182AFE318746B20795FDAD18130D62706819740581F688365D7E564933CEC ====

CD4

Exact Audio Copy V1.3 from 2. September 2016
EAC extraction logfile from 5. April 2018, 0:37
Gillian Weir / Messiaen: The Complete Organ Works (CD4)
Used drive : LENOVO USB_SATA_Burner4 Adapter: 0 ID: 0
Read mode : SecureUtilize accurate stream : YesDefeat audio cache : YesMake use of C2 pointers : No
Read offset correction : 6Overread into Lead-In and Lead-Out : NoFill up missing offset samples with silence : YesDelete leading and trailing silent blocks : NoNull samples used in CRC calculations : YesUsed interface : Installed external ASPI interface
Used output format : User Defined EncoderSelected bitrate : 1024 kBit/sQuality : HighAdd ID3 tag : NoCommand line compressor : C:\Program Files (x86)\Exact Audio Copy\FLAC\FLAC.EXEAdditional command line options : -8 -V -T "TITLE=%title%" -T "ARTIST=%artist%" -T "ALBUMARTIST=%albumartist%" -T "ALBUM=%albumtitle%" -T "DATE=%year%" -T "TRACKNUMBER=%tracknr%" -T "TRACKTOTAL=%numtracks%" -T "GENRE=%genre%" -T "COMMENT=%comment%" -T "PERFORMER=%albuminterpret%" -T "COMPOSER=%composer%" %source% -o %dest%
TOC of the extracted CD
Track | Start | Length | Start sector | End sector --------------------------------------------------------- 1 | 0:00.32 | 9:08.70 | 32 | 41201 2 | 9:09.27 | 12:06.08 | 41202 | 95659 3 | 21:15.35 | 2:55.67 | 95660 | 108851 4 | 24:11.27 | 6:02.68 | 108852 | 136069 5 | 30:14.20 | 10:05.07 | 136070 | 181451 6 | 40:19.27 | 7:50.43 | 181452 | 216744 7 | 48:09.70 | 6:46.27 | 216745 | 247221 8 | 54:56.22 | 9:46.20 | 247222 | 291191 9 | 64:42.42 | 10:44.45 | 291192 | 339536
Range status and errors
Selected range
Filename C:\EACRip\Messiaen - The Complete Organ Works (Gillian Weir)(1994)[7CD]\CD4\Messiaen - The Complete Organ Works (CD4) - Gillian Weir.wav
Peak level 87.9 % Extraction speed 2.1 X Range quality 99.9 % Test CRC 5A4DD922 Copy CRC 5A4DD922 Copy OK
No errors occurred
AccurateRip summary
Track 1 accurately ripped (confidence 3) [734BC561] (AR v2)Track 2 accurately ripped (confidence 3) [EDE9BC25] (AR v2)Track 3 accurately ripped (confidence 3) [67C5993A] (AR v2)Track 4 accurately ripped (confidence 3) [91884A23] (AR v2)Track 5 accurately ripped (confidence 3) [24470BCD] (AR v2)Track 6 accurately ripped (confidence 3) [CFD21E1B] (AR v2)Track 7 accurately ripped (confidence 3) [81E81824] (AR v2)Track 8 accurately ripped (confidence 3) [68856E57] (AR v2)Track 9 accurately ripped (confidence 3) [EF526A61] (AR v2)
All tracks accurately ripped
End of status report
---- CUETools DB Plugin V2.1.6
[CTDB TOCID: 5oD1WHMw4nkMlPUi7gfYJc3RHko-] foundSubmit result: 5oD1WHMw4nkMlPUi7gfYJc3RHko- has been confirmedTrack | CTDB Status 1 | (4/4) Accurately ripped 2 | (4/4) Accurately ripped 3 | (4/4) Accurately ripped 4 | (4/4) Accurately ripped 5 | (4/4) Accurately ripped 6 | (4/4) Accurately ripped 7 | (4/4) Accurately ripped 8 | (4/4) Accurately ripped 9 | (4/4) Accurately ripped
==== Log checksum 164D46401A708F451AA2D9A9E2AA0150983E9350AEEA854209608B78CFC23E2B ====

CD5

Exact Audio Copy V1.3 from 2. September 2016
EAC extraction logfile from 5. April 2018, 2:53
Gillian Weir / Messiaen - The Complete Organ Works (CD5)
Used drive : LENOVO USB_SATA_Burner4 Adapter: 0 ID: 0
Read mode : SecureUtilize accurate stream : YesDefeat audio cache : YesMake use of C2 pointers : No
Read offset correction : 6Overread into Lead-In and Lead-Out : NoFill up missing offset samples with silence : YesDelete leading and trailing silent blocks : NoNull samples used in CRC calculations : YesUsed interface : Installed external ASPI interface
Used output format : User Defined EncoderSelected bitrate : 1024 kBit/sQuality : HighAdd ID3 tag : NoCommand line compressor : C:\Program Files (x86)\Exact Audio Copy\FLAC\FLAC.EXEAdditional command line options : -8 -V -T "TITLE=%title%" -T "ARTIST=%artist%" -T "ALBUMARTIST=%albumartist%" -T "ALBUM=%albumtitle%" -T "DATE=%year%" -T "TRACKNUMBER=%tracknr%" -T "TRACKTOTAL=%numtracks%" -T "GENRE=%genre%" -T "COMMENT=%comment%" -T "PERFORMER=%albuminterpret%" -T "COMPOSER=%composer%" %source% -o %dest%
TOC of the extracted CD
Track | Start | Length | Start sector | End sector --------------------------------------------------------- 1 | 0:00.32 | 6:07.48 | 32 | 27604 2 | 6:08.05 | 6:36.02 | 27605 | 57306 3 | 12:44.07 | 4:31.10 | 57307 | 77641 4 | 17:15.17 | 7:05.60 | 77642 | 109576 5 | 24:21.02 | 2:13.03 | 109577 | 119554 6 | 26:34.05 | 11:00.65 | 119555 | 169119 7 | 37:34.70 | 3:40.22 | 169120 | 185641 8 | 41:15.17 | 5:39.03 | 185642 | 211069 9 | 46:54.20 | 3:10.27 | 211070 | 225346
Range status and errors
Selected range
Filename C:\EACRip\Messiaen - The Complete Organ Works (Gillian Weir)(1994)[7CD]\CD5\Messiaen - The Complete Organ Works (CD5) - Gillian Weir.wav
Peak level 93.9 % Extraction speed 1.8 X Range quality 99.9 % Test CRC C5222067 Copy CRC C5222067 Copy OK
No errors occurred
AccurateRip summary
Track 1 accurately ripped (confidence 3) [E6AB4601] (AR v2)Track 2 accurately ripped (confidence 3) [78953436] (AR v2)Track 3 accurately ripped (confidence 3) [3227A998] (AR v2)Track 4 accurately ripped (confidence 3) [F41D456D] (AR v2)Track 5 accurately ripped (confidence 3) [EE6EFDE7] (AR v2)Track 6 accurately ripped (confidence 3) [2E9DA036] (AR v2)Track 7 accurately ripped (confidence 3) [B8A2ABB0] (AR v2)Track 8 accurately ripped (confidence 3) [1572ED13] (AR v2)Track 9 accurately ripped (confidence 2) [35289CD4] (AR v2)
All tracks accurately ripped
End of status report
---- CUETools DB Plugin V2.1.6
[CTDB TOCID: rGlbNkZQ3zMyCrb3alsU8e8UeYM-] foundSubmit result: rGlbNkZQ3zMyCrb3alsU8e8UeYM- has been confirmedTrack | CTDB Status 1 | (4/4) Accurately ripped 2 | (4/4) Accurately ripped 3 | (4/4) Accurately ripped 4 | (3/4) Accurately ripped 5 | (4/4) Accurately ripped 6 | (4/4) Accurately ripped 7 | (4/4) Accurately ripped 8 | (4/4) Accurately ripped 9 | (4/4) Accurately ripped
==== Log checksum CFF9D9A8FBB609EEC1B70A2BDF1E2138173F3090C52D0140F93D612B0BB7DDDD ====

CD6

Exact Audio Copy V1.3 from 2. September 2016
EAC extraction logfile from 5. April 2018, 10:56
Gillian Weir / Messiaen - The Complete Organ Works (CD6)
Used drive : LENOVO USB_SATA_Burner4 Adapter: 0 ID: 0
Read mode : SecureUtilize accurate stream : YesDefeat audio cache : YesMake use of C2 pointers : No
Read offset correction : 6Overread into Lead-In and Lead-Out : NoFill up missing offset samples with silence : YesDelete leading and trailing silent blocks : NoNull samples used in CRC calculations : YesUsed interface : Installed external ASPI interface
Used output format : User Defined EncoderSelected bitrate : 1024 kBit/sQuality : HighAdd ID3 tag : NoCommand line compressor : C:\Program Files (x86)\Exact Audio Copy\FLAC\FLAC.EXEAdditional command line options : -8 -V -T "TITLE=%title%" -T "ARTIST=%artist%" -T "ALBUMARTIST=%albumartist%" -T "ALBUM=%albumtitle%" -T "DATE=%year%" -T "TRACKNUMBER=%tracknr%" -T "TRACKTOTAL=%numtracks%" -T "GENRE=%genre%" -T "COMMENT=%comment%" -T "PERFORMER=%albuminterpret%" -T "COMPOSER=%composer%" %source% -o %dest%
TOC of the extracted CD
Track | Start | Length | Start sector | End sector --------------------------------------------------------- 1 | 0:00.32 | 3:00.03 | 32 | 13534 2 | 3:00.35 | 2:16.50 | 13535 | 23784 3 | 5:17.10 | 5:50.60 | 23785 | 50094 4 | 11:07.70 | 2:17.70 | 50095 | 60439 5 | 13:25.65 | 6:03.22 | 60440 | 87686 6 | 19:29.12 | 9:28.45 | 87687 | 130331 7 | 28:57.57 | 3:38.23 | 130332 | 146704 8 | 32:36.05 | 4:38.15 | 146705 | 167569 9 | 37:14.20 | 4:16.55 | 167570 | 186824 10 | 41:31.00 | 4:23.50 | 186825 | 206599 11 | 45:54.50 | 12:24.65 | 206600 | 262464
Range status and errors
Selected range
Filename C:\EACRip\Messiaen - The Complete Organ Works (Gillian Weir)(1994)[7CD]\CD6\Messiaen - The Complete Organ Works (CD6) - Gillian Weir.wav
Peak level 79.9 % Extraction speed 2.0 X Range quality 100.0 % Test CRC 4DFCB4F3 Copy CRC 4DFCB4F3 Copy OK
No errors occurred
AccurateRip summary
Track 1 accurately ripped (confidence 4) [337D93A5] (AR v2)Track 2 accurately ripped (confidence 4) [628FE19A] (AR v2)Track 3 accurately ripped (confidence 4) [52789342] (AR v2)Track 4 accurately ripped (confidence 4) [07645458] (AR v2)Track 5 accurately ripped (confidence 4) [2253D5AE] (AR v2)Track 6 accurately ripped (confidence 4) [A2D73AC6] (AR v2)Track 7 accurately ripped (confidence 4) [CFF998EF] (AR v2)Track 8 accurately ripped (confidence 4) [BD5F2DAE] (AR v2)Track 9 accurately ripped (confidence 4) [C576C14A] (AR v2)Track 10 accurately ripped (confidence 4) [004972C1] (AR v2)Track 11 accurately ripped (confidence 4) [4792EAE6] (AR v2)
All tracks accurately ripped
End of status report
---- CUETools DB Plugin V2.1.6
[CTDB TOCID: OzES4mAb0E.gDc8Yx9txCBoLHoo-] foundSubmit result: OzES4mAb0E.gDc8Yx9txCBoLHoo- has been confirmedTrack | CTDB Status 1 | (6/6) Accurately ripped 2 | (6/6) Accurately ripped 3 | (6/6) Accurately ripped 4 | (6/6) Accurately ripped 5 | (6/6) Accurately ripped 6 | (6/6) Accurately ripped 7 | (6/6) Accurately ripped 8 | (6/6) Accurately ripped 9 | (6/6) Accurately ripped 10 | (6/6) Accurately ripped 11 | (6/6) Accurately ripped
==== Log checksum C06DFBF61056E688E2776444C096A50CEEA76EA8E592D8FCF715C9AAB944E3F2 ====

CD7

Exact Audio Copy V1.3 from 2. September 2016
EAC extraction logfile from 5. April 2018, 11:51
Gillian Weir / Messiaen - The Complete Organ Works (CD7)
Used drive : LENOVO USB_SATA_Burner4 Adapter: 0 ID: 0
Read mode : SecureUtilize accurate stream : YesDefeat audio cache : YesMake use of C2 pointers : No
Read offset correction : 6Overread into Lead-In and Lead-Out : NoFill up missing offset samples with silence : YesDelete leading and trailing silent blocks : NoNull samples used in CRC calculations : YesUsed interface : Installed external ASPI interface
Used output format : User Defined EncoderSelected bitrate : 1024 kBit/sQuality : HighAdd ID3 tag : NoCommand line compressor : C:\Program Files (x86)\Exact Audio Copy\FLAC\FLAC.EXEAdditional command line options : -8 -V -T "TITLE=%title%" -T "ARTIST=%artist%" -T "ALBUMARTIST=%albumartist%" -T "ALBUM=%albumtitle%" -T "DATE=%year%" -T "TRACKNUMBER=%tracknr%" -T "TRACKTOTAL=%numtracks%" -T "GENRE=%genre%" -T "COMMENT=%comment%" -T "PERFORMER=%albuminterpret%" -T "COMPOSER=%composer%" %source% -o %dest%
TOC of the extracted CD
Track | Start | Length | Start sector | End sector --------------------------------------------------------- 1 | 0:00.33 | 7:20.25 | 33 | 33057 2 | 7:20.58 | 6:49.52 | 33058 | 63784 3 | 14:10.35 | 4:36.23 | 63785 | 84507 4 | 18:46.58 | 6:18.67 | 84508 | 112924 5 | 25:05.50 | 6:46.60 | 112925 | 143434 6 | 31:52.35 | 2:41.33 | 143435 | 155542 7 | 34:33.68 | 7:38.55 | 155543 | 189947
Range status and errors
Selected range
Filename C:\EACRip\Messiaen - The Complete Organ Works (Gillian Weir)(1994)[7CD]\CD7\Messiaen - The Complete Organ Works (CD7) - Gillian Weir.wav
Peak level 81.5 % Extraction speed 1.7 X Range quality 100.0 % Test CRC 411AB41E Copy CRC 411AB41E Copy OK
No errors occurred
AccurateRip summary
Track 1 accurately ripped (confidence 4) [278C4D62] (AR v2)Track 2 accurately ripped (confidence 4) [1014F2ED] (AR v2)Track 3 accurately ripped (confidence 4) [27B84E4C] (AR v2)Track 4 accurately ripped (confidence 4) [CAB35C31] (AR v2)Track 5 accurately ripped (confidence 4) [A9FC9809] (AR v2)Track 6 accurately ripped (confidence 4) [5BCE3C48] (AR v2)Track 7 accurately ripped (confidence 4) [82C8AF12] (AR v2)
All tracks accurately ripped
End of status report
---- CUETools DB Plugin V2.1.6
[CTDB TOCID: YFyQYjj0N.uiqcvpeYdmht4O3qY-] foundSubmit result: YFyQYjj0N.uiqcvpeYdmht4O3qY- has been confirmedTrack | CTDB Status 1 | (6/6) Accurately ripped 2 | (6/6) Accurately ripped 3 | (6/6) Accurately ripped 4 | (6/6) Accurately ripped 5 | (6/6) Accurately ripped 6 | (6/6) Accurately ripped 7 | (6/6) Accurately ripped
==== Log checksum 624693885AE241B60C3C9404E3ACF92FACEBDCE5D6184882F58F378EF3C6E6D1 ====

Содержание индексной карты (.CUE)

CD1

REM GENRE ClassicalREM DATE 1994REM DISCID 7A102C0AREM COMMENT "ExactAudioCopy v1.3"PERFORMER "Gillian Weir"TITLE "Messiaen: The Complete Organ Works (CD1)"REM COMPOSER "Olivier Messiaen (1908–1992)"FILE "Messiaen - The Complete Organ Works (CD1) - Gillian Weir.flac" WAVE  TRACK 01 AUDIO    TITLE "La Nativité du Seigneur, meditations (9) for organ, I-14: La vierge et l'Enfant"    PERFORMER "Gillian Weir"    REM COMPOSER "Olivier Messiaen (1908–1992)"    INDEX 00 00:00:00    INDEX 01 00:00:33  TRACK 02 AUDIO    TITLE "La Nativité du Seigneur, meditations (9) for organ, I-14: Les Bergers"    PERFORMER "Gillian Weir"    REM COMPOSER "Olivier Messiaen (1908–1992)"    INDEX 00 06:19:43    INDEX 01 06:27:58  TRACK 03 AUDIO    TITLE "La Nativité du Seigneur, meditations (9) for organ, I-14: Desseins éternels"    PERFORMER "Gillian Weir"    REM COMPOSER "Olivier Messiaen (1908–1992)"    INDEX 00 12:04:10    INDEX 01 12:14:35  TRACK 04 AUDIO    TITLE "La Nativité du Seigneur, meditations (9) for organ, I-14: Le Verbe"    PERFORMER "Gillian Weir"    REM COMPOSER "Olivier Messiaen (1908–1992)"    INDEX 00 16:36:23    INDEX 01 16:38:68  TRACK 05 AUDIO    TITLE "La Nativité du Seigneur, meditations (9) for organ, I-14: Les Enfants de Dieu"    PERFORMER "Gillian Weir"    REM COMPOSER "Olivier Messiaen (1908–1992)"    INDEX 00 29:26:68    INDEX 01 29:36:45  TRACK 06 AUDIO    TITLE "La Nativité du Seigneur, meditations (9) for organ, I-14: Les Anges"    PERFORMER "Gillian Weir"    REM COMPOSER "Olivier Messiaen (1908–1992)"    INDEX 00 33:46:00    INDEX 01 33:52:15  TRACK 07 AUDIO    TITLE "La Nativité du Seigneur, meditations (9) for organ, I-14: Jésus accepte la souffrance"    PERFORMER "Gillian Weir"    REM COMPOSER "Olivier Messiaen (1908–1992)"    INDEX 00 36:53:28    INDEX 01 37:04:43  TRACK 08 AUDIO    TITLE "La Nativité du Seigneur, meditations (9) for organ, I-14: Les Mages"    PERFORMER "Gillian Weir"    REM COMPOSER "Olivier Messiaen (1908–1992)"    INDEX 00 41:32:60    INDEX 01 41:42:70  TRACK 09 AUDIO    TITLE "La Nativité du Seigneur, meditations (9) for organ, I-14: Dieu parmi nous"    PERFORMER "Gillian Weir"    REM COMPOSER "Olivier Messiaen (1908–1992)"    INDEX 00 48:28:18    INDEX 01 48:38:08  TRACK 10 AUDIO    TITLE "Diptyque, for organ, I-3"    PERFORMER "Gillian Weir"    REM COMPOSER "Olivier Messiaen (1908–1992)"    INDEX 00 56:59:05    INDEX 01 57:13:13

CD2

REM GENRE ClassicalREM DATE 1994REM DISCID 6E0E2308REM COMMENT "ExactAudioCopy v1.3"PERFORMER "Gillian Weir"TITLE "Messiaen: The Complete Organ Works (CD2)"REM COMPOSER "Olivier Messiaen (1908–1992)"FILE "Messiaen - The Complete Organ Works (CD2) - Gillian Weir.flac" WAVE  TRACK 01 AUDIO    TITLE "Le Corps glorieux, brief visions (7) for organ, I-20: Subtilité des corps glorieux"    PERFORMER "Gillian Weir"    REM COMPOSER "Olivier Messiaen (1908–1992)"    INDEX 00 00:00:00    INDEX 01 00:00:33  TRACK 02 AUDIO    TITLE "Le Corps glorieux, brief visions (7) for organ, I-20: II. Les eaux de la grâce"    PERFORMER "Gillian Weir"    REM COMPOSER "Olivier Messiaen (1908–1992)"    INDEX 00 06:39:05    INDEX 01 06:47:38  TRACK 03 AUDIO    TITLE "Le Corps glorieux, brief visions (7) for organ, I-20: III. L'Ange aux parfums"    PERFORMER "Gillian Weir"    REM COMPOSER "Olivier Messiaen (1908–1992)"    INDEX 00 09:45:55    INDEX 01 09:54:58  TRACK 04 AUDIO    TITLE "Le Corps glorieux, brief visions (7) for organ, I-20: IV. Combat de la mort et de la vie"    PERFORMER "Gillian Weir"    REM COMPOSER "Olivier Messiaen (1908–1992)"    INDEX 00 18:36:40    INDEX 01 18:42:03  TRACK 05 AUDIO    TITLE "Le Corps glorieux, brief visions (7) for organ, I-20: V. Force et agilité des corps glorieux"    PERFORMER "Gillian Weir"    REM COMPOSER "Olivier Messiaen (1908–1992)"    INDEX 00 33:16:38    INDEX 01 33:27:58  TRACK 06 AUDIO    TITLE "Le Corps glorieux, brief visions (7) for organ, I-20: VI. Joie et clarté des corps glorieux"    PERFORMER "Gillian Weir"    REM COMPOSER "Olivier Messiaen (1908–1992)"    INDEX 00 37:07:35    INDEX 01 37:16:03  TRACK 07 AUDIO    TITLE "Le Corps glorieux, brief visions (7) for organ, I-20: VII. Le Mystère de la Sainte-Trinité"    PERFORMER "Gillian Weir"    REM COMPOSER "Olivier Messiaen (1908–1992)"    INDEX 00 42:23:38    INDEX 01 42:32:55  TRACK 08 AUDIO    TITLE "Verset pour la fête de la dédicace, for organ, I-44"    PERFORMER "Gillian Weir"    REM COMPOSER "Olivier Messiaen (1908–1992)"    INDEX 00 49:23:53    INDEX 01 49:35:65

CD3

REM GENRE ClassicalREM DATE 1994REM DISCID 6D0EF609REM COMMENT "ExactAudioCopy v1.3"PERFORMER "Gillian Weir"TITLE "Messiaen: The Complete Organ Works (CD3)"REM COMPOSER "Olivier Messiaen (1908–1992)"FILE "Messiaen - The Complete Organ Works (CD3) - Gillian Weir.flac" WAVE  TRACK 01 AUDIO    TITLE "Le banquet céleste, for organ, I-1"    PERFORMER "Gillian Weir"    REM COMPOSER "Olivier Messiaen (1908–1992)"    INDEX 00 00:00:00    INDEX 01 00:00:32  TRACK 02 AUDIO    TITLE "Apparition de l'église Éternelle, for organ, I-8"    PERFORMER "Gillian Weir"    REM COMPOSER "Olivier Messiaen (1908–1992)"    INDEX 00 07:22:65    INDEX 01 07:30:32  TRACK 03 AUDIO    TITLE "Livre d'orgue, for organ, I-38: Reprises par interversion"    PERFORMER "Gillian Weir"    REM COMPOSER "Olivier Messiaen (1908–1992)"    INDEX 00 18:14:67    INDEX 01 18:22:15  TRACK 04 AUDIO    TITLE "Livre d'orgue, for organ, I-38: Pièce en trio No. 1 (pour le Dimanche de la Sainte-Trinité)"    PERFORMER "Gillian Weir"    REM COMPOSER "Olivier Messiaen (1908–1992)"    INDEX 00 24:43:52    INDEX 01 24:50:52  TRACK 05 AUDIO    TITLE "Livre d'orgue, for organ, I-38: Les Mains de l'abîme (Pour les Temps de Pénitence)"    PERFORMER "Gillian Weir"    REM COMPOSER "Olivier Messiaen (1908–1992)"    INDEX 00 27:52:02    INDEX 01 28:00:42  TRACK 06 AUDIO    TITLE "Livre d'orgue, for organ, I-38: Chants d'oiseaux (Pour le Temps Pascal)"    PERFORMER "Gillian Weir"    REM COMPOSER "Olivier Messiaen (1908–1992)"    INDEX 00 34:06:02    INDEX 01 34:10:25  TRACK 07 AUDIO    TITLE "Livre d'orgue, for organ, I-38: Pièce en trio No. 2 (Pour le Dimanche de la Sainte-Trinité)"    PERFORMER "Gillian Weir"    REM COMPOSER "Olivier Messiaen (1908–1992)"    INDEX 00 42:06:60    INDEX 01 42:17:05  TRACK 08 AUDIO    TITLE "Livre d'orgue, for organ, I-38: Les Yeux dans les roues (Pour le Dimanche de la Pentecôte)"    PERFORMER "Gillian Weir"    REM COMPOSER "Olivier Messiaen (1908–1992)"    INDEX 00 51:17:50    INDEX 01 51:26:02  TRACK 09 AUDIO    TITLE "Livre d'orgue, for organ, I-38: Soixante-quatre durées"    PERFORMER "Gillian Weir"    REM COMPOSER "Olivier Messiaen (1908–1992)"    INDEX 00 53:16:17    INDEX 01 53:23:62

CD4

REM GENRE ClassicalREM DATE 1994REM DISCID 8511AF09REM COMMENT "ExactAudioCopy v1.3"PERFORMER "Gillian Weir"TITLE "Messiaen: The Complete Organ Works (CD4)"REM COMPOSER "Olivier Messiaen (1908–1992)"FILE "Messiaen - The Complete Organ Works (CD4) - Gillian Weir.flac" WAVE  TRACK 01 AUDIO    TITLE "Méditations sur le mystère de la Sainte-Trinité, for organ, I-49: I"    PERFORMER "Gillian Weir"    REM COMPOSER "Olivier Messiaen (1908–1992)"    INDEX 00 00:00:00    INDEX 01 00:00:32  TRACK 02 AUDIO    TITLE "Méditations sur le mystère de la Sainte-Trinité, for organ, I-49: II"    PERFORMER "Gillian Weir"    REM COMPOSER "Olivier Messiaen (1908–1992)"    INDEX 00 09:03:07    INDEX 01 09:09:27  TRACK 03 AUDIO    TITLE "Méditations sur le mystère de la Sainte-Trinité, for organ, I-49: III"    PERFORMER "Gillian Weir"    REM COMPOSER "Olivier Messiaen (1908–1992)"    INDEX 00 21:07:37    INDEX 01 21:15:35  TRACK 04 AUDIO    TITLE "Méditations sur le mystère de la Sainte-Trinité, for organ, I-49: IV"    PERFORMER "Gillian Weir"    REM COMPOSER "Olivier Messiaen (1908–1992)"    INDEX 00 24:01:15    INDEX 01 24:11:27  TRACK 05 AUDIO    TITLE "Méditations sur le mystère de la Sainte-Trinité, for organ, I-49: V."    PERFORMER "Gillian Weir"    REM COMPOSER "Olivier Messiaen (1908–1992)"    INDEX 00 30:02:45    INDEX 01 30:14:20  TRACK 06 AUDIO    TITLE "Méditations sur le mystère de la Sainte-Trinité, for organ, I-49: VI"    PERFORMER "Gillian Weir"    REM COMPOSER "Olivier Messiaen (1908–1992)"    INDEX 00 40:13:05    INDEX 01 40:19:27  TRACK 07 AUDIO    TITLE "Méditations sur le mystère de la Sainte-Trinité, for organ, I-49: VII"    PERFORMER "Gillian Weir"    REM COMPOSER "Olivier Messiaen (1908–1992)"    INDEX 00 48:03:47    INDEX 01 48:09:70  TRACK 08 AUDIO    TITLE "Méditations sur le mystère de la Sainte-Trinité, for organ, I-49: VIII"    PERFORMER "Gillian Weir"    REM COMPOSER "Olivier Messiaen (1908–1992)"    INDEX 00 54:49:07    INDEX 01 54:56:22  TRACK 09 AUDIO    TITLE "Méditations sur le mystère de la Sainte-Trinité, for organ, I-49: IX"    PERFORMER "Gillian Weir"    REM COMPOSER "Olivier Messiaen (1908–1992)"    INDEX 00 64:35:50    INDEX 01 64:42:42

CD5

REM GENRE ClassicalREM DATE 1994REM DISCID 810BBC09REM COMMENT "ExactAudioCopy v1.3"PERFORMER "Gillian Weir"TITLE "Messiaen - The Complete Organ Works (CD5)"REM COMPOSER "Olivier Messiaen (1908–1992)"FILE "Messiaen - The Complete Organ Works (CD5) - Gillian Weir.flac" WAVE  TRACK 01 AUDIO    TITLE "L' Ascension, for organ (arr. from orchestral piece), I-12b: Majesté du Christ demandant sa gloire à son Père"    PERFORMER "Gillian Weir"    REM COMPOSER "Olivier Messiaen (1908–1992)"    INDEX 00 00:00:00    INDEX 01 00:00:32  TRACK 02 AUDIO    TITLE "L' Ascension, for organ (arr. from orchestral piece), I-12b: Alléluias sereins d'une âme qui désire le ciel"    PERFORMER "Gillian Weir"    REM COMPOSER "Olivier Messiaen (1908–1992)"    INDEX 00 06:04:20    INDEX 01 06:08:05  TRACK 03 AUDIO    TITLE "L' Ascension, for organ (arr. from orchestral piece), I-12b: Transports de joie d'une âme devant la gloire du Christ qui est la sienne"    PERFORMER "Gillian Weir"    REM COMPOSER "Olivier Messiaen (1908–1992)"    INDEX 00 12:34:22    INDEX 01 12:44:07  TRACK 04 AUDIO    TITLE "L' Ascension, for organ (arr. from orchestral piece), I-12b: Prière du Christ montant vers son Père"    PERFORMER "Gillian Weir"    REM COMPOSER "Olivier Messiaen (1908–1992)"    INDEX 00 17:07:15    INDEX 01 17:15:17  TRACK 05 AUDIO    TITLE "Messe de la Pentecôte, for organ, I-36: Entree (Les Langues de feu)"    PERFORMER "Gillian Weir"    REM COMPOSER "Olivier Messiaen (1908–1992)"    INDEX 00 24:09:32    INDEX 01 24:21:02  TRACK 06 AUDIO    TITLE "Messe de la Pentecôte, for organ, I-36: Offertoire (Les choses visibles et invisibles)"    PERFORMER "Gillian Weir"    REM COMPOSER "Olivier Messiaen (1908–1992)"    INDEX 00 26:25:55    INDEX 01 26:34:05  TRACK 07 AUDIO    TITLE "Messe de la Pentecôte, for organ, I-36: Consécration (Le Don de sagesse)"    PERFORMER "Gillian Weir"    REM COMPOSER "Olivier Messiaen (1908–1992)"    INDEX 00 37:26:00    INDEX 01 37:34:70  TRACK 08 AUDIO    TITLE "Messe de la Pentecôte, for organ, I-36: Communion (Les oiseaux et les sources)"    PERFORMER "Gillian Weir"    REM COMPOSER "Olivier Messiaen (1908–1992)"    INDEX 00 41:05:20    INDEX 01 41:15:17  TRACK 09 AUDIO    TITLE "Messe de la Pentecôte, for organ, I-36: Sortie (Le Vent de l'Esprit)"    PERFORMER "Gillian Weir"    REM COMPOSER "Olivier Messiaen (1908–1992)"    INDEX 00 46:48:05    INDEX 01 46:54:20

CD6

REM GENRE ClassicalREM DATE 1994REM DISCID A60DAB0BREM COMMENT "ExactAudioCopy v1.3"PERFORMER "Gillian Weir"TITLE "Messiaen - The Complete Organ Works (CD6)"REM COMPOSER "Olivier Messiaen (1908–1992)"FILE "Messiaen - The Complete Organ Works (CD6) - Gillian Weir.flac" WAVE  TRACK 01 AUDIO    TITLE "Livre du Saint-Sacrement, for organ, I-53: I. Adoro Te"    PERFORMER "Gillian Weir"    REM COMPOSER "Olivier Messiaen (1908–1992)"    INDEX 00 00:00:00    INDEX 01 00:00:32  TRACK 02 AUDIO    TITLE "Livre du Saint-Sacrement, for organ, I-53: II. La Source de vie"    PERFORMER "Gillian Weir"    REM COMPOSER "Olivier Messiaen (1908–1992)"    INDEX 00 02:54:57    INDEX 01 03:00:35  TRACK 03 AUDIO    TITLE "Livre du Saint-Sacrement, for organ, I-53: III. Le Dieu caché"    PERFORMER "Gillian Weir"    REM COMPOSER "Olivier Messiaen (1908–1992)"    INDEX 00 05:11:27    INDEX 01 05:17:10  TRACK 04 AUDIO    TITLE "Livre du Saint-Sacrement, for organ, I-53: IV. Acte de foi"    PERFORMER "Gillian Weir"    REM COMPOSER "Olivier Messiaen (1908–1992)"    INDEX 00 10:59:22    INDEX 01 11:07:70  TRACK 05 AUDIO    TITLE "Livre du Saint-Sacrement, for organ, I-53: V. Puer natus est nobis"    PERFORMER "Gillian Weir"    REM COMPOSER "Olivier Messiaen (1908–1992)"    INDEX 00 13:20:22    INDEX 01 13:25:65  TRACK 06 AUDIO    TITLE "Livre du Saint-Sacrement, for organ, I-53: VI. La Manne et le pain de vie"    PERFORMER "Gillian Weir"    REM COMPOSER "Olivier Messiaen (1908–1992)"    INDEX 00 19:20:02    INDEX 01 19:29:12  TRACK 07 AUDIO    TITLE "Livre du Saint-Sacrement, for organ, I-53: VII. Les Ressuscités et la Lumière de vie"    PERFORMER "Gillian Weir"    REM COMPOSER "Olivier Messiaen (1908–1992)"    INDEX 00 28:50:20    INDEX 01 28:57:57  TRACK 08 AUDIO    TITLE "Livre du Saint-Sacrement, for organ, I-53: VIII. Institution de l'Eucharistie"    PERFORMER "Gillian Weir"    REM COMPOSER "Olivier Messiaen (1908–1992)"    INDEX 00 32:28:10    INDEX 01 32:36:05  TRACK 09 AUDIO    TITLE "Livre du Saint-Sacrement, for organ, I-53: IX. Les Ténèbres"    PERFORMER "Gillian Weir"    REM COMPOSER "Olivier Messiaen (1908–1992)"    INDEX 00 37:05:37    INDEX 01 37:14:20  TRACK 10 AUDIO    TITLE "Livre du Saint-Sacrement, for organ, I-53: X. La Résurrection du Christ"    PERFORMER "Gillian Weir"    REM COMPOSER "Olivier Messiaen (1908–1992)"    INDEX 00 41:22:35    INDEX 01 41:31:00  TRACK 11 AUDIO    TITLE "Livre du Saint-Sacrement, for organ, I-53: XI. L'apparition du Christ ressuscité à Marie-Madeleine"    PERFORMER "Gillian Weir"    REM COMPOSER "Olivier Messiaen (1908–1992)"    INDEX 00 45:47:22    INDEX 01 45:54:50

CD7

REM GENRE ClassicalREM DATE 1994REM DISCID 5109E407REM COMMENT "ExactAudioCopy v1.3"PERFORMER "Gillian Weir"TITLE "Messiaen - The Complete Organ Works (CD7)"REM COMPOSER "Olivier Messiaen (1908–1992)"FILE "Messiaen - The Complete Organ Works (CD7) - Gillian Weir.flac" WAVE  TRACK 01 AUDIO    TITLE "Livre du Saint-Sacrement, for organ, I-53: XII. La Transsubstantiation"    PERFORMER "Gillian Weir"    REM COMPOSER "Olivier Messiaen (1908–1992)"    INDEX 00 00:00:00    INDEX 01 00:00:33  TRACK 02 AUDIO    TITLE "Livre du Saint-Sacrement, for organ, I-53: XIII. Les deux murailles d'eau"    PERFORMER "Gillian Weir"    REM COMPOSER "Olivier Messiaen (1908–1992)"    INDEX 00 07:11:25    INDEX 01 07:20:58  TRACK 03 AUDIO    TITLE "Livre du Saint-Sacrement, for organ, I-53: XIV. Prière avant la communion"    PERFORMER "Gillian Weir"    REM COMPOSER "Olivier Messiaen (1908–1992)"    INDEX 00 14:04:15    INDEX 01 14:10:35  TRACK 04 AUDIO    TITLE "Livre du Saint-Sacrement, for organ, I-53: XV. La joie de la grace"    PERFORMER "Gillian Weir"    REM COMPOSER "Olivier Messiaen (1908–1992)"    INDEX 00 18:32:10    INDEX 01 18:46:58  TRACK 05 AUDIO    TITLE "Livre du Saint-Sacrement, for organ, I-53: XVI. Prière après la communion"    PERFORMER "Gillian Weir"    REM COMPOSER "Olivier Messiaen (1908–1992)"    INDEX 00 24:57:25    INDEX 01 25:05:50  TRACK 06 AUDIO    TITLE "Livre du Saint-Sacrement, for organ, I-53: XVII. La Présence multipliée"    PERFORMER "Gillian Weir"    REM COMPOSER "Olivier Messiaen (1908–1992)"    INDEX 00 31:41:00    INDEX 01 31:52:35  TRACK 07 AUDIO    TITLE "Livre du Saint-Sacrement, for organ, I-53: XVIII. Offrande et Alleluia final"    PERFORMER "Gillian Weir"    REM COMPOSER "Olivier Messiaen (1908–1992)"    INDEX 00 34:28:65    INDEX 01 34:33:68
[doutdess.info].t262273.torrent
Torrent: Registered [ 2018-04-19 18:25 ] · A0AA2BCF9DB407C2DE7FB4B96ED727C6F2022FCB

20 KB

Status: checked
Completed: 0 times
Size: 1.44 GB
(Classical organ solo) Messiaen - L\'Oeuvre d\'Orgue / Enregistrement integral / The Complete Organ Works [7CD\'s] (Gillian Weir) - 1994, FLAC (image+.cue) lossless скачать торрент бесплатно и без регистрации

[Profile] [PM]
Forum Topic Author Size
Вокальная музыка в lossless ((classical/operetta)) Schönes bleibt. Unvergessene Tenöre bei WDR 4 / Прекрасное остаётся - 2000, FLAC (image+.cue) lossless Vi$itReal 401 MB
Вокальная и хоровая музыка lossy (Classical (Lieder)) (Lieder) Norman Bailey - Songs of Hugo Wolf - 1979, MP3 (tracks) 320 kbps RelizMAN 120 MB
Концерт для инструмента с оркестром в lossless (Classical ) Top 20 CDs for your Classical Music Collection - ClassicalCDguide.com: 02 - W. A. Mozart - Great Piano Concertos N 20 - 25 (1997) APE (tracks), 450-566 kb/s RelizMAN 582 MB
Концерт для инструмента с оркестром в lossless (Classical ) Top 20 CDs for your Classical Music Collection - ClassicalCDguide.com: 04 - Bach: Die Brandenburgische Konzerte - Orchestra of the Age of Enlightenment 2 CD (1999) APE (tracks), 610-769... RelizMAN 462 MB
Оркестровая музыка в lossless (Classical ) Top 20 CDs for your Classical Music Collection - ClassicalCDguide.com: 06 - Igor Stravinsky; Petroushka, Le Sacre du Printemps - Columbia Symphony Orchestra (Sony 1990) APE (tracks),... Vi$itReal 274 MB
Камерная инструментальная музыка в lossless (Classical ) Top 20 CDs for your Classical Music Collection - ClassicalCDguide.com: 07 - Franz Schubert - \'Trout\' Quintet & \'Death and the Maiden\' - Amadeus Quartet (DG ... Vi$itReal 343 MB
Камерная инструментальная музыка в lossless (Classical ) Top 20 CDs for your Classical Music Collection - ClassicalCDguide.com: 10 - Georges Bizet; Carmen - Sir Thomas Beecham, de Los Angeles, Gedda, Michau, Blanc (EMI 2000) аре (по-треково),... Vi$itReal 745 MB
Камерная инструментальная музыка в lossless (Classical ) Top 20 CDs for your Classical Music Collection - ClassicalCDguide.com: 12 - Франц Шуберт - Симфония No. 3, Unfinished 39; - Carlos Kleiber и Wiener Philharmoniker (DG 1... Vi$itReal 186 MB
Display posts:    

Current time is: 22-Jul 05:03

All times are UTC + 3



You cannot post new topics in this forum
You cannot reply to topics in this forum
You cannot edit your posts in this forum
You cannot delete your posts in this forum
You cannot vote in polls in this forum
You cannot attach files in this forum
You can download files in this forum