Reply to topic
DL-List and Torrent activity [Update пиров]
Size:  67 MB   |    Registered:  3 years 8 months   |    Completed:  2 times
Seeders:  442  [  0 KB/s  ]   Leechers:  36  [  0 KB/s  ]  
 
     
 
 
Author Message

Vi$itReal ®

12

Post 05-Oct-2015 14:30

[Quote]

Mike Dawes / What Just Happened ?
Жанр: Solo Acoustic Guitar
Страна: UK
Год издания: 2013
Аудиокодек: MP3
Битрейт аудио: V0
Продолжительность: 40:36.987 (107 471 112 samples)
Наличие сканов в содержимом раздачи: нет
Треклист:
1. Boogie Slam [04:37]
2. Somebody That I Used To Know [04:04]
3. The Impossible [03:56]
4. Forest Party [03:14]
5. Somewhere Home [06:41]
6. Titanium [04:04]
7. Superstition [05:32]
8. Boogie Shred [03:17]
9. Maybe Someday Soon [05:07]

Скриншот проверки качества материала

Об исполнителе (группе)

Mike Dawes is a 23 year old English virtuoso Fingerstyle guitar player known for composing, arranging and performing multiple parts simultaneously on one instrument. He is influenced heavily by folk, pop and rock music as well as other fingerstyle players such as Michael Hedges, Pierre Bensusan[1] and Jon Gomm. He has released numerous recordings both independently and with CandyRat Records, notably a viral virtuoso arrangement of Somebody That I Used to Know by Gotye that gained over 1.2 million hits in its first week of release.[2] He has received strong critical acclaim from the international press and musical community.

Об альбоме (сборнике)

'What Just Happened?' is the long awaited debut album from English guitarist Mike Dawes.
This album features virtuosic solo and collaborative compositions and arrangements spanning a variety of genres, taking heavy influence from folk, pop and rock music.
Catch Mike on tour throughout the world in 2013!

Dynamic Range

--------------------------------------------------------------------------------
Analyzed: Mike Dawes / What Just Happened?
--------------------------------------------------------------------------------
DR Peak RMS Duration Track
--------------------------------------------------------------------------------
DR11 0.00 dB -14.35 dB 4:38 ?-Boogie Slam
DR12 0.00 dB -14.99 dB 4:04 ?-Somebody That I Used To Know
DR13 0.00 dB -16.60 dB 3:57 ?-The Impossible
DR13 0.00 dB -15.55 dB 3:14 ?-Forest Party
DR14 0.00 dB -17.87 dB 6:41 ?-Somewhere Home
DR10 0.00 dB -14.30 dB 4:05 ?-Titanium
DR15 0.00 dB -17.44 dB 5:33 ?-Superstition
DR12 0.00 dB -14.52 dB 3:17 ?-Boogie Shred
DR11 0.00 dB -14.70 dB 5:08 ?-Maybe Someday Soon
--------------------------------------------------------------------------------
Number of tracks: 9
Official DR value: DR12
Samplerate: 44100 Hz
Channels: 2
Bitrate: 220 kbps
Codec: MP3
================================================================================

Доп. информация

Label................: Candyrat Records
URL..................: http://candyrat.com/artists/mikedawes/WhatJustHappened/
Source...............: WEB / CDDA
Codec................: LAME 3.98.4
Quality..............: VBRkbps V0
Channels.............: Joint Stereo / 44100 hz
Tags.................: ID3 v1.1, ID3 v2.3
Included.............: NFO, SFV, M3U
Covers...............: Front
Total Size...........: 64,83 MB
для ознакомления с артистом.
рип найден в сети.

[doutdess.info].t81183.torrent
Torrent: Registered [ 2015-10-05 14:30 ] · 23F9399D00FA8BEA3A5C3A15988243CB2990173E

12 KB

Status: checked
Completed: 2 times
Size: 67 MB
(Solo Acoustic Guitar) Mike Dawes - What Just Happened ? - 2013, MP3, V0 скачать торрент бесплатно и без регистрации

[Profile] [PM]
Display posts:    

Current time is: 24-Jun 19:22

All times are UTC + 3



You cannot post new topics in this forum
You cannot reply to topics in this forum
You cannot edit your posts in this forum
You cannot delete your posts in this forum
You cannot vote in polls in this forum
You cannot attach files in this forum
You can download files in this forum