Reply to topic
DL-List and Torrent activity [Update пиров]
Size:  457 MB   |    Registered:  3 years 8 months   |    Completed:  0 times
Seeders:  693  [  0 KB/s  ]   Leechers:  51  [  0 KB/s  ]  
 
     
 
 
Author Message

RelizMAN ®

11

Post 05-Oct-2015 00:31

[Quote]

Colors In Motion (Dancing Fantasy & Blue Knight) / Gentle Jorney
Жанр: New Age/Smooth Sound
Носитель: CD
Страна-производитель диска (релиза): Russia
Год издания: 1995
Издатель (лейбл): Night Sky/Landy Star Music
Номер по каталогу: LS-3553
Аудиокодек: FLAC (*.flac)
Тип рипа: image+.cue
Битрейт аудио: lossless
Продолжительность: 60'02''
Источник (релизер): RedHotBlues
Наличие сканов в содержимом раздачи: да
Треклист:
CD: Colors in Motion - Gentle Journey
01. Sunshine U.S.A. [0:04:45.72]
02. Rumbaba [0:04:28.50]
03. A Horse With No Name [0:04:57.23]
04. Gentle Journey [0:03:41.12]
05. Cloudy [0:02:55.73]
06. Emotional Motions [0:03:37.57]
07. Sentimental Guitar [0:02:55.13]
08. Endless Highway [0:04:04.07]
09. Touch of Rain [0:05:04.40]
10. Moody Groove [0:03:39.68]
11. Art of Love [0:04:02.40]
12. Lonely Island [0:04:48.15]
13. Easy Living [0:02:56.30]
14. Night Train [0:04:07.22]
15. End of Music [0:04:11.30]

Лог создания рипа

Exact Audio Copy V1.0 beta 6 from 9. April 2015
Отчёт EAC об извлечении, выполненном 23. сентября 2015, 23:38
Colors in Motion / Gentle Journey
Дисковод: ATAPI iHAS122 C Adapter: 1 ID: 1
Режим чтения : ДостоверностьИспользование точного потока : ДаОтключение кэша аудио : ДаИспользование указателей C2 : Нет
Коррекция смещения при чтении : 6Способность читать области Lead-in и Lead-out : НетЗаполнение пропущенных сэмплов тишиной : ДаУдаление блоков с тишиной в начале и конце : НетПри вычислениях CRC использовались нулевые сэмплы : ДаИнтерфейс : Встроенный Win32-интерфейс для Win NT/2000
Выходной формат : Пользовательский кодировщикВыбранный битрейт : 768 kBit/sКачество : ВысокийДобавление ID3-тега : НетУтилита сжатия : C:\Program Files\Exact Audio Copy\Flac\flac.exeДополнительные параметры : -6 -V -T "ARTIST=%artist%" -T "TITLE=%title%" -T "ALBUM=%albumtitle%" -T "DATE=%year%" -T "TRACKNUMBER=%tracknr%" -T "GENRE=%genre%" -T "COMMENT=%comment%" -T "BAND=%albuminterpret%" -T "ALBUMARTIST=%albuminterpret%" -T "COMPOSER=%composer%" %haslyrics%--tag-from-file=LYRICS="%lyricsfile%"%haslyrics% -T "DISCNUMBER=%cdnumber%" -T "TOTALDISCS=%totalcds%" -T "TOTALTRACKS=%numtracks%" %hascover%--picture="%coverfile%"%hascover% %source% -o %dest%
TOC извлечённого CD
Трек | Старт | Длительность | Начальный сектор | Конечный сектор --------------------------------------------------------------------- 1 | 0:00.00 | 4:45.72 | 0 | 21446 2 | 4:45.72 | 4:28.50 | 21447 | 41596 3 | 9:14.47 | 4:57.23 | 41597 | 63894 4 | 14:11.70 | 3:41.12 | 63895 | 80481 5 | 17:53.07 | 2:55.73 | 80482 | 93679 6 | 20:49.05 | 3:37.57 | 93680 | 110011 7 | 24:26.62 | 2:55.13 | 110012 | 123149 8 | 27:22.00 | 4:04.07 | 123150 | 141456 9 | 31:26.07 | 5:04.40 | 141457 | 164296 10 | 36:30.47 | 3:39.68 | 164297 | 180789 11 | 40:10.40 | 4:02.40 | 180790 | 198979 12 | 44:13.05 | 4:48.15 | 198980 | 220594 13 | 49:01.20 | 2:56.30 | 220595 | 233824 14 | 51:57.50 | 4:07.22 | 233825 | 252371 15 | 56:04.72 | 4:11.30 | 252372 | 271226
Характеристики диапазона извлечения и сообщения об ошибках
Выбранный диапазон
Имя файла D:\Torrent Lossless\Colors In Motion - Gentle Jorney - 1995 - 60'02''\Colors in Motion - Gentle Journey.wav
Пиковый уровень 100.0 % Скорость извлечения 8.8 X Качество диапазона 100.0 % CRC теста D81B84EE CRC копии D81B84EE Копирование... OK
Ошибок не произошло
Конец отчёта
---- CUETools DB Plugin V2.1.6
[CTDB TOCID: dPogqJnw6pz.yhtESlrUDnCxvuI-] disk not present in databaseSubmit result: dPogqJnw6pz.yhtESlrUDnCxvuI- has been uploaded
==== Контрольная сумма отчёта 7FE502AB08110F97D9D8F4F856510835FC94927EF0143C7E5672DEC2A53F9AC4 ====

Лог проверки качества

-----------------------
DON'T MODIFY THIS FILE
-----------------------
PERFORMER: auCDtect Task Manager, ver. 1.5.1RC4 build 1.5.1.5Copyright (c) 2008-2010 y-soft. All rights reservedhttp://y-soft.org
ANALYZER: auCDtect: CD records authenticity detector, version 0.8.2Copyright (c) 2004 Oleg Berngardt. All rights reserved.Copyright (c) 2004 Alexander Djourik. All rights reserved.
FILE: Colors in Motion - Gentle Journey.flac Size: 423660443 Hash: CC00291AABAEDFF06D75F89CDEC7CAE3 Accuracy: -m0 Conclusion: CDDA 99% Signature: 648740F991403EDDE2501C022277D047676939B6

Скриншот спектра частот

Доп. информация: Куда разместить-поместить релиз - всё на волю модератора!
Curtis McLaw (Dancing Fantasy) сидит в Нью Эйдже,
Peter Sefkow (Blue Knight) сидит в Смут-Джазе!
Имхо, здесь можно услышать, кроме вышеозначенного, даже Lounge ...
Smooth Sound одним словом! он и в буклете оговорен...

Об альбоме (сборнике)


[doutdess.info].t81066.torrent
Torrent: Registered [ 2015-10-05 00:30 ] · C3DF461631CE12857C0930500E9406343DE96F

19 KB

Status: checked
Completed: 0 times
Size: 457 MB
(New Age/Smooth Sound) [CD] Colors In Motion (Dancing Fantasy & Blue Knight) - Gentle Jorney - 1995, FLAC (image+.cue), lossless скачать торрент бесплатно и без регистрации

[Profile] [PM]
Display posts:    

Current time is: 24-Jun 19:08

All times are UTC + 3



You cannot post new topics in this forum
You cannot reply to topics in this forum
You cannot edit your posts in this forum
You cannot delete your posts in this forum
You cannot vote in polls in this forum
You cannot attach files in this forum
You can download files in this forum