Reply to topic
DL-List and Torrent activity [Update пиров]
Size:  977 MB   |    Registered:  3 years 8 months   |    Completed:  0 times
Seeders:  347  [  0 KB/s  ]   Leechers:  40  [  0 KB/s  ]  
 
     
 
 
Author Message

RelizMAN ®

11

Post 05-Oct-2015 14:30

[Quote]

Paco de Lucia - La Búsqueda Жанр: Flamenco, Instrumental, Cante
Страна-производитель диска (релиза): Испания
Год издания: 2014
Издатель (лейбл): Universal Music Spain S.L.
Номер по каталогу: 0602547115324
Страна исполнителя (группы): Испания
Аудиокодек: FLAC (*.flac)
Тип рипа: tracks+.cue
Битрейт аудио: lossless
Общая продолжительность: 02:37:38
Источник: new-team
Наличие сканов в содержимом раздачи: да

Треклист CD1

Продолжительность: 79:26
01 Guajira Flamenca
02 Anda Jaleo
03 Impetu
04 Panaderos Flamencos
05 Aires de Linares
06 Y Tu No Me Respondias
07 Malaguena de Lecuona
08 Rumba Improvisada
09 Entre Dos Aguas
10 Fuente y Caudal
11 Plaza Alta
12 Monasterio de Sal
13 Solo Quiero Caminar
14 La Barrosa
15 Como El Agua
16 En Tu Puerta de la Luna
17 Tres Luceros

Треклист CD2

Продолжительность: 78:11
01 Mi Nino Curro (Directo)
02 Casilda
03 Tío Sabas
04 Zyryab
05 Cancion del Fuego Fatuo
06 Buana Buana King Kong (Directo)
07 Luzia
08 Maria de La O
09 Te he de querer mientras viva
10 Ojos Verdes
11 Moraito Siempre (Directo)
12 Vamonos (Directo)

Лог создания рипаCD1

Exact Audio Copy V1.0 beta 3 from 29. August 2011
EAC extraction logfile from 23. May 2015, 20:08
Paco de Lucia / La Búsqueda
Used drive : ASUS DRW-24F1ST a Adapter: 2 ID: 0
Read mode : Secure
Utilize accurate stream : Yes
Defeat audio cache : Yes
Make use of C2 pointers : No
Read offset correction : 6
Overread into Lead-In and Lead-Out : No
Fill up missing offset samples with silence : Yes
Delete leading and trailing silent blocks : No
Null samples used in CRC calculations : Yes
Used interface : Native Win32 interface for Win NT & 2000
Gap handling : Appended to previous track
Used output format : User Defined Encoder
Selected bitrate : 1024 kBit/s
Quality : High
Add ID3 tag : No
Command line compressor : C:\Program Files (x86)\Exact Audio Copy\Flac\flac.exe
Additional command line options : -8 -V -T "COMMENT=ripped by DrStandBy special for new-team.org" -T "ARTIST=%artist%" -T "TITLE=%title%" -T "ALBUM=%albumtitle%" -T "DATE=%year%" -T "TRACKNUMBER=%tracknr%" -T "GENRE=%genre%" %source%
TOC of the extracted CD
Track | Start | Length | Start sector | End sector
---------------------------------------------------------
1 | 0:00.00 | 3:51.37 | 0 | 17361
2 | 3:51.37 | 4:01.18 | 17362 | 35454
3 | 7:52.55 | 2:58.52 | 35455 | 48856
4 | 10:51.32 | 2:38.54 | 48857 | 60760
5 | 13:30.11 | 6:04.67 | 60761 | 88127
6 | 19:35.03 | 3:59.73 | 88128 | 106125
7 | 23:35.01 | 4:35.16 | 106126 | 126766
8 | 28:10.17 | 4:08.03 | 126767 | 145369
9 | 32:18.20 | 6:00.41 | 145370 | 172410
10 | 38:18.61 | 5:14.11 | 172411 | 195971
11 | 43:32.72 | 6:14.12 | 195972 | 224033
12 | 49:47.09 | 4:53.41 | 224034 | 246049
13 | 54:40.50 | 6:19.41 | 246050 | 274515
14 | 61:00.16 | 4:38.27 | 274516 | 295392
15 | 65:38.43 | 3:42.36 | 295393 | 312078
16 | 69:21.04 | 4:25.63 | 312079 | 332016
17 | 73:46.67 | 5:39.67 | 332017 | 357508
Track 1
Filename I:\For new-team.org\2014 - Paco de Lucia - La Búsqueda (0602547115324)\1-01. Paco de Lucia - Guajira Flamanca.wav
Pre-gap length 0:00:02.00
Peak level 100.0 %
Extraction speed 4.9 X
Track quality 100.0 %
Test CRC 10B76C4A
Copy CRC 10B76C4A
Accurately ripped (confidence 1) [8F600E73] (AR v2)
Copy OK
Track 2
Filename I:\For new-team.org\2014 - Paco de Lucia - La Búsqueda (0602547115324)\1-02. Paco de Lucia - Anda Jaleo.wav
Pre-gap length 0:00:02.00
Peak level 100.0 %
Extraction speed 5.3 X
Track quality 100.0 %
Test CRC F617EB78
Copy CRC F617EB78
Accurately ripped (confidence 1) [27934180] (AR v2)
Copy OK
Track 3
Filename I:\For new-team.org\2014 - Paco de Lucia - La Búsqueda (0602547115324)\1-03. Paco de Lucia - Ìmpetu.wav
Pre-gap length 0:00:02.00
Peak level 100.0 %
Extraction speed 5.5 X
Track quality 100.0 %
Test CRC B78A04F8
Copy CRC B78A04F8
Accurately ripped (confidence 1) [F32EED7D] (AR v2)
Copy OK
Track 4
Filename I:\For new-team.org\2014 - Paco de Lucia - La Búsqueda (0602547115324)\1-04. Paco de Lucia - Panaderos Flamencos.wav
Pre-gap length 0:00:02.00
Peak level 100.0 %
Extraction speed 2.6 X
Track quality 99.9 %
Test CRC E650E2E8
Copy CRC E650E2E8
Accurately ripped (confidence 1) [7179492B] (AR v2)
Copy OK
Track 5
Filename I:\For new-team.org\2014 - Paco de Lucia - La Búsqueda (0602547115324)\1-05. Paco de Lucia - Aires de Linares.wav
Pre-gap length 0:00:02.00
Peak level 100.0 %
Extraction speed 4.3 X
Track quality 99.9 %
Test CRC 36161E0D
Copy CRC 36161E0D
Accurately ripped (confidence 1) [5E615226] (AR v2)
Copy OK
Track 6
Filename I:\For new-team.org\2014 - Paco de Lucia - La Búsqueda (0602547115324)\1-06. Paco de Lucia - Y Tú No Me Respondías.wav
Pre-gap length 0:00:02.00
Peak level 100.0 %
Extraction speed 6.7 X
Track quality 100.0 %
Test CRC A5E71AAD
Copy CRC A5E71AAD
Accurately ripped (confidence 1) [C14A69DA] (AR v2)
Copy OK
Track 7
Filename I:\For new-team.org\2014 - Paco de Lucia - La Búsqueda (0602547115324)\1-07. Paco de Lucia - Malagueña de Lecuona.wav
Pre-gap length 0:00:02.00
Peak level 100.0 %
Extraction speed 3.9 X
Track quality 99.9 %
Test CRC 3CA55C30
Copy CRC 3CA55C30
Accurately ripped (confidence 1) [C715B12C] (AR v2)
Copy OK
Track 8
Filename I:\For new-team.org\2014 - Paco de Lucia - La Búsqueda (0602547115324)\1-08. Paco de Lucia - Rumba Improvisada.wav
Pre-gap length 0:00:02.00
Peak level 100.0 %
Extraction speed 7.4 X
Track quality 100.0 %
Test CRC 69C1D85C
Copy CRC 69C1D85C
Accurately ripped (confidence 1) [21FE3ADF] (AR v2)
Copy OK
Track 9
Filename I:\For new-team.org\2014 - Paco de Lucia - La Búsqueda (0602547115324)\1-09. Paco de Lucia - Entre Dos Aguas.wav
Pre-gap length 0:00:02.00
Peak level 100.0 %
Extraction speed 4.7 X
Track quality 99.9 %
Test CRC D5C2BCA3
Copy CRC D5C2BCA3
Accurately ripped (confidence 1) [C7072440] (AR v2)
Copy OK
Track 10
Filename I:\For new-team.org\2014 - Paco de Lucia - La Búsqueda (0602547115324)\1-10. Paco de Lucia - Fuente y Caudal.wav
Pre-gap length 0:00:02.00
Peak level 100.0 %
Extraction speed 8.3 X
Track quality 100.0 %
Test CRC E48B8090
Copy CRC E48B8090
Accurately ripped (confidence 1) [2E4BE467] (AR v2)
Copy OK
Track 11
Filename I:\For new-team.org\2014 - Paco de Lucia - La Búsqueda (0602547115324)\1-11. Paco de Lucia - Plaza Alta.wav
Pre-gap length 0:00:02.00
Peak level 100.0 %
Extraction speed 5.0 X
Track quality 99.9 %
Test CRC F6B5B0AF
Copy CRC F6B5B0AF
Accurately ripped (confidence 1) [5F8FED78] (AR v2)
Copy OK
Track 12
Filename I:\For new-team.org\2014 - Paco de Lucia - La Búsqueda (0602547115324)\1-12. Paco de Lucia - Monasterio de Sal.wav
Pre-gap length 0:00:02.00
Peak level 100.0 %
Extraction speed 8.8 X
Track quality 100.0 %
Test CRC AB32B284
Copy CRC AB32B284
Accurately ripped (confidence 1) [5917CC3F] (AR v2)
Copy OK
Track 13
Filename I:\For new-team.org\2014 - Paco de Lucia - La Búsqueda (0602547115324)\1-13. Paco de Lucia - Solo Quiero Caminar.wav
Pre-gap length 0:00:02.00
Peak level 100.0 %
Extraction speed 9.4 X
Track quality 100.0 %
Test CRC 2D3BFB96
Copy CRC 2D3BFB96
Accurately ripped (confidence 1) [3889578B] (AR v2)
Copy OK
Track 14
Filename I:\For new-team.org\2014 - Paco de Lucia - La Búsqueda (0602547115324)\1-14. Paco de Lucia - La Barrosa.wav
Pre-gap length 0:00:02.00
Peak level 100.0 %
Extraction speed 9.5 X
Track quality 100.0 %
Test CRC 05E21324
Copy CRC 05E21324
Accurately ripped (confidence 1) [DF780BED] (AR v2)
Copy OK
Track 15
Filename I:\For new-team.org\2014 - Paco de Lucia - La Búsqueda (0602547115324)\1-15. Paco de Lucia - Como El Agua.wav
Pre-gap length 0:00:02.00
Peak level 100.0 %
Extraction speed 9.3 X
Track quality 100.0 %
Test CRC 1275BEC4
Copy CRC 1275BEC4
Cannot be verified as accurate (confidence 1) [1C6328A0], AccurateRip returned [2A9CDB67] (AR v2)
Copy OK
Track 16
Filename I:\For new-team.org\2014 - Paco de Lucia - La Búsqueda (0602547115324)\1-16. Paco de Lucia - En Tu Puerta de la Luna.wav
Pre-gap length 0:00:02.01
Peak level 100.0 %
Extraction speed 9.8 X
Track quality 100.0 %
Test CRC C9C37699
Copy CRC C9C37699
Track not present in AccurateRip database
Copy OK
Track 17
Filename I:\For new-team.org\2014 - Paco de Lucia - La Búsqueda (0602547115324)\1-17. Paco de Lucia - Tres Luceros.wav
Pre-gap length 0:00:01.72
Peak level 100.0 %
Extraction speed 10.3 X
Track quality 100.0 %
Test CRC E4A25D7E
Copy CRC E4A25D7E
Track not present in AccurateRip database
Copy OK
14 track(s) accurately ripped
1 track(s) could not be verified as accurate
2 track(s) not present in the AccurateRip database
Some tracks could not be verified as accurate
No errors occurred
End of status report
---- CUETools DB Plugin V2.1.6
[CTDB TOCID: 6Z260F_lCG7DAeMQg_xyKglccnk-] found
Submit result: 6Z260F_lCG7DAeMQg_xyKglccnk- has been confirmed
Track | CTDB Status
1 | (3/3) Accurately ripped
2 | (3/3) Accurately ripped
3 | (3/3) Accurately ripped
4 | (3/3) Accurately ripped
5 | (3/3) Accurately ripped
6 | (3/3) Accurately ripped
7 | (3/3) Accurately ripped
8 | (3/3) Accurately ripped
9 | (3/3) Accurately ripped
10 | (3/3) Accurately ripped
11 | (3/3) Accurately ripped
12 | (3/3) Accurately ripped
13 | (3/3) Accurately ripped
14 | (3/3) Accurately ripped
15 | (2/3) Accurately ripped
16 | (2/3) Accurately ripped
17 | (2/3) Accurately ripped
==== Log checksum BA5A454CDE7A6835A918A0801BA016A38B54A838A12DDFB8E2AC3D1B38509119 ====

CD2

Exact Audio Copy V1.0 beta 3 from 29. August 2011
EAC extraction logfile from 23. May 2015, 21:21
Paco de Lucía / La Búsqueda
Used drive : ASUS DRW-24F1ST a Adapter: 2 ID: 0
Read mode : Secure
Utilize accurate stream : Yes
Defeat audio cache : Yes
Make use of C2 pointers : No
Read offset correction : 6
Overread into Lead-In and Lead-Out : No
Fill up missing offset samples with silence : Yes
Delete leading and trailing silent blocks : No
Null samples used in CRC calculations : Yes
Used interface : Native Win32 interface for Win NT & 2000
Gap handling : Appended to previous track
Used output format : User Defined Encoder
Selected bitrate : 1024 kBit/s
Quality : High
Add ID3 tag : No
Command line compressor : C:\Program Files (x86)\Exact Audio Copy\Flac\flac.exe
Additional command line options : -8 -V -T "COMMENT=ripped by DrStandBy special for new-team.org" -T "ARTIST=%artist%" -T "TITLE=%title%" -T "ALBUM=%albumtitle%" -T "DATE=%year%" -T "TRACKNUMBER=%tracknr%" -T "GENRE=%genre%" %source%
TOC of the extracted CD
Track | Start | Length | Start sector | End sector
---------------------------------------------------------
1 | 0:00.00 | 8:26.02 | 0 | 37951
2 | 8:26.02 | 3:46.53 | 37952 | 54954
3 | 12:12.55 | 5:05.31 | 54955 | 77860
4 | 17:18.11 | 6:17.25 | 77861 | 106160
5 | 23:35.36 | 4:06.28 | 106161 | 124638
6 | 27:41.64 | 5:16.45 | 124639 | 148383
7 | 32:58.34 | 5:40.04 | 148384 | 173887
8 | 38:38.38 | 3:56.44 | 173888 | 191631
9 | 42:35.07 | 3:34.34 | 191632 | 207715
10 | 46:09.41 | 4:48.38 | 207716 | 229353
11 | 50:58.04 | 16:02.45 | 229354 | 301548
12 | 67:00.49 | 11:10.70 | 301549 | 351868
Track 1
Filename I:\For new-team.org\2014 - Paco de Lucia - La Búsqueda (0602547115324)\2-01. Paco de Lucía - Mi Niño Curro (Directo).wav
Pre-gap length 0:00:02.00
Peak level 100.0 %
Extraction speed 2.2 X
Track quality 100.0 %
Test CRC A6136EEB
Copy CRC A6136EEB
Track not present in AccurateRip database
Copy OK
Track 2
Filename I:\For new-team.org\2014 - Paco de Lucia - La Búsqueda (0602547115324)\2-02. Paco de Lucía - Casilda.wav
Pre-gap length 0:00:02.00
Peak level 100.0 %
Extraction speed 1.9 X
Track quality 99.9 %
Test CRC 06C8E682
Copy CRC 06C8E682
Track not present in AccurateRip database
Copy OK
Track 3
Filename I:\For new-team.org\2014 - Paco de Lucia - La Búsqueda (0602547115324)\2-03. Paco de Lucía - Tío Sabas.wav
Pre-gap length 0:00:02.00
Peak level 100.0 %
Extraction speed 2.2 X
Track quality 99.9 %
Test CRC 106B2B99
Copy CRC 106B2B99
Track not present in AccurateRip database
Copy OK
Track 4
Filename I:\For new-team.org\2014 - Paco de Lucia - La Búsqueda (0602547115324)\2-04. Paco de Lucía - Zyryab.wav
Pre-gap length 0:00:02.00
Peak level 100.0 %
Extraction speed 2.8 X
Track quality 100.0 %
Test CRC 7C98B847
Copy CRC 7C98B847
Track not present in AccurateRip database
Copy OK
Track 5
Filename I:\For new-team.org\2014 - Paco de Lucia - La Búsqueda (0602547115324)\2-05. Paco de Lucía - Canción del Fuego Fatuo.wav
Pre-gap length 0:00:02.00
Peak level 100.0 %
Extraction speed 2.8 X
Track quality 100.0 %
Test CRC 7160898A
Copy CRC 7160898A
Track not present in AccurateRip database
Copy OK
Track 6
Filename I:\For new-team.org\2014 - Paco de Lucia - La Búsqueda (0602547115324)\2-06. Paco de Lucía - Buana Buana King Kong (Directo).wav
Pre-gap length 0:00:02.00
Peak level 100.0 %
Extraction speed 3.1 X
Track quality 100.0 %
Test CRC 0F37A6BA
Copy CRC 0F37A6BA
Track not present in AccurateRip database
Copy OK
Track 7
Filename I:\For new-team.org\2014 - Paco de Lucia - La Búsqueda (0602547115324)\2-07. Paco de Lucía - Luzia.wav
Pre-gap length 0:00:02.00
Peak level 100.0 %
Extraction speed 3.3 X
Track quality 100.0 %
Test CRC 8EA8BD85
Copy CRC 8EA8BD85
Track not present in AccurateRip database
Copy OK
Track 8
Filename I:\For new-team.org\2014 - Paco de Lucia - La Búsqueda (0602547115324)\2-08. Paco de Lucía - María de Lao.wav
Pre-gap length 0:00:02.00
Peak level 100.0 %
Extraction speed 3.3 X
Track quality 100.0 %
Test CRC 77A64CD0
Copy CRC 77A64CD0
Track not present in AccurateRip database
Copy OK
Track 9
Filename I:\For new-team.org\2014 - Paco de Lucia - La Búsqueda (0602547115324)\2-09. Paco de Lucía - Te he de querer mientras viva.wav
Pre-gap length 0:00:02.00
Peak level 100.0 %
Extraction speed 2.4 X
Track quality 99.9 %
Test CRC C8318A6F
Copy CRC C8318A6F
Track not present in AccurateRip database
Copy OK
Track 10
Filename I:\For new-team.org\2014 - Paco de Lucia - La Búsqueda (0602547115324)\2-10. Paco de Lucía - Ojos Verdes.wav
Pre-gap length 0:00:02.00
Peak level 100.0 %
Extraction speed 2.7 X
Track quality 99.9 %
Test CRC 5D8963DE
Copy CRC 5D8963DE
Track not present in AccurateRip database
Copy OK
Track 11
Filename I:\For new-team.org\2014 - Paco de Lucia - La Búsqueda (0602547115324)\2-11. Paco de Lucía - Moraíto Siempre (Directo).wav
Pre-gap length 0:00:02.00
Peak level 100.0 %
Extraction speed 4.2 X
Track quality 100.0 %
Test CRC D8D7C74C
Copy CRC D8D7C74C
Track not present in AccurateRip database
Copy OK
Track 12
Filename I:\For new-team.org\2014 - Paco de Lucia - La Búsqueda (0602547115324)\2-12. Paco de Lucía - Vámonos (Directo).wav
Pre-gap length 0:00:02.00
Peak level 100.0 %
Extraction speed 4.4 X
Track quality 100.0 %
Test CRC B2DB17FC
Copy CRC B2DB17FC
Track not present in AccurateRip database
Copy OK
None of the tracks are present in the AccurateRip database
No errors occurred
End of status report
---- CUETools DB Plugin V2.1.6
[CTDB TOCID: BpKEj4kh2Tbignkryc1qYo7PPoU-] found
Submit result: BpKEj4kh2Tbignkryc1qYo7PPoU- has been confirmed
Track | CTDB Status
1 | (2/2) Accurately ripped
2 | (2/2) Accurately ripped
3 | (2/2) Accurately ripped
4 | (2/2) Accurately ripped
5 | (2/2) Accurately ripped
6 | (2/2) Accurately ripped
7 | (1/2) Accurately ripped, or (1/2) differs in 1196 samples @00:49:40-00:49:41,00:50:31-00:50:32,00:50:47-00:50:48,00:50:64-00:50:65,00:53:71-00:53:72,01:02:59,01:03:00-01:03:01,01:03:50-01:03:51,01:04:08-01:04:09,01:04:25-01:04:26,01:04:58-01:04:59,01:05:49-01:05:50,01:06:07-01:06:08,01:06:41,01:10:56-01:10:57,01:11:64-01:11:65,01:15:13-01:15:14,01:18:71-01:18:72
8 | (2/2) Accurately ripped
9 | (2/2) Accurately ripped
10 | (2/2) Accurately ripped
11 | (2/2) Accurately ripped
12 | (2/2) Accurately ripped
==== Log checksum 5FEDD044D04EAB6893F4979B0F59D1EBF266368D370E9584EF54E06490165B5A ====

Содержание индексной карты (.CUE)CD1

REM GENRE "Latin, Flamenco"
REM DATE 2014
REM DISCID ED129E11
REM COMMENT "ExactAudioCopy v1.0b3"
CATALOG 0602547115348
PERFORMER "Paco de Lucia"
TITLE "La Busqueda"
FILE "01. Guajira Flamenca.wav" WAVE
TRACK 01 AUDIO
TITLE "Guajira Flamenca"
PERFORMER "Paco de Lucia"
INDEX 01 00:00:00
FILE "02. Anda Jaleo.wav" WAVE
TRACK 02 AUDIO
TITLE "Anda Jaleo"
PERFORMER "Paco de Lucia"
INDEX 01 00:00:00
FILE "03. Impetu.wav" WAVE
TRACK 03 AUDIO
TITLE "Impetu"
PERFORMER "Paco de Lucia"
INDEX 01 00:00:00
FILE "04. Panaderos Flamencos.wav" WAVE
TRACK 04 AUDIO
TITLE "Panaderos Flamencos"
PERFORMER "Paco de Lucia"
INDEX 01 00:00:00
FILE "05. Aires de Linares.wav" WAVE
TRACK 05 AUDIO
TITLE "Aires de Linares"
PERFORMER "Paco de Lucia"
INDEX 01 00:00:00
FILE "06. Y Tu No Me Respondias.wav" WAVE
TRACK 06 AUDIO
TITLE "Y Tu No Me Respondias"
PERFORMER "Paco de Lucia"
INDEX 01 00:00:00
FILE "07. Malaguena de Lecuona.wav" WAVE
TRACK 07 AUDIO
TITLE "Malaguena de Lecuona"
PERFORMER "Paco de Lucia"
INDEX 01 00:00:00
FILE "08. Rumba Improvisada.wav" WAVE
TRACK 08 AUDIO
TITLE "Rumba Improvisada"
PERFORMER "Paco de Lucia"
INDEX 01 00:00:00
FILE "09. Entre Dos Aguas.wav" WAVE
TRACK 09 AUDIO
TITLE "Entre Dos Aguas"
PERFORMER "Paco de Lucia"
INDEX 01 00:00:00
FILE "10. Fuente y Caudal.wav" WAVE
TRACK 10 AUDIO
TITLE "Fuente y Caudal"
PERFORMER "Paco de Lucia"
INDEX 01 00:00:00
FILE "11. Plaza Alta.wav" WAVE
TRACK 11 AUDIO
TITLE "Plaza Alta"
PERFORMER "Paco de Lucia"
INDEX 01 00:00:00
FILE "12. Monasterio de Sal.wav" WAVE
TRACK 12 AUDIO
TITLE "Monasterio de Sal"
PERFORMER "Paco de Lucia"
INDEX 01 00:00:00
FILE "13. Solo Quiero Caminar.wav" WAVE
TRACK 13 AUDIO
TITLE "Solo Quiero Caminar"
PERFORMER "Paco de Lucia"
INDEX 01 00:00:00
FILE "14. La Barrosa.wav" WAVE
TRACK 14 AUDIO
TITLE "La Barrosa"
PERFORMER "Paco de Lucia"
INDEX 01 00:00:00
FILE "15. Como El Agua.wav" WAVE
TRACK 15 AUDIO
TITLE "Como El Agua"
PERFORMER "Paco de Lucia"
INDEX 01 00:00:00
FILE "16. En Tu Puerta de la Luna.wav" WAVE
TRACK 16 AUDIO
TITLE "En Tu Puerta de la Luna"
PERFORMER "Paco de Lucia"
INDEX 01 00:00:00
FILE "17. Tres Luceros.wav" WAVE
TRACK 17 AUDIO
TITLE "Tres Luceros"
PERFORMER "Paco de Lucia"
INDEX 01 00:00:00

CD2

REM GENRE "Latin, Flamenco"
REM DATE 2014
REM DISCID 8D12530C
REM COMMENT "ExactAudioCopy v1.0b3"
CATALOG 0602547115362
PERFORMER "Paco de Lucia"
TITLE "La Busqueda"
FILE "01. Mi Nino Curro (Directo).wav" WAVE
TRACK 01 AUDIO
TITLE "Mi Nino Curro (Directo)"
PERFORMER "Paco de Lucia"
INDEX 01 00:00:00
FILE "02. Casilda.wav" WAVE
TRACK 02 AUDIO
TITLE "Casilda"
PERFORMER "Paco de Lucia"
INDEX 01 00:00:00
FILE "03. Tio Sabas.wav" WAVE
TRACK 03 AUDIO
TITLE "Tio Sabas"
PERFORMER "Paco de Lucia"
INDEX 01 00:00:00
FILE "04. Zyryab.wav" WAVE
TRACK 04 AUDIO
TITLE "Zyryab"
PERFORMER "Paco de Lucia"
INDEX 01 00:00:00
FILE "05. Cancion del Fuego Fatuo.wav" WAVE
TRACK 05 AUDIO
TITLE "Cancion del Fuego Fatuo"
PERFORMER "Paco de Lucia"
INDEX 01 00:00:00
FILE "06. Buana Buana King Kong (Directo).wav" WAVE
TRACK 06 AUDIO
TITLE "Buana Buana King Kong (Directo)"
PERFORMER "Paco de Lucia"
INDEX 01 00:00:00
FILE "07. Luzia.wav" WAVE
TRACK 07 AUDIO
TITLE "Luzia"
PERFORMER "Paco de Lucia"
INDEX 01 00:00:00
FILE "08. Maria de La O.wav" WAVE
TRACK 08 AUDIO
TITLE "Maria de La O"
PERFORMER "Paco de Lucia"
INDEX 01 00:00:00
FILE "09. Te he de querer mientras viva.wav" WAVE
TRACK 09 AUDIO
TITLE "Te he de querer mientras viva"
PERFORMER "Paco de Lucia"
INDEX 01 00:00:00
FILE "10. Ojos Verdes.wav" WAVE
TRACK 10 AUDIO
TITLE "Ojos Verdes"
PERFORMER "Paco de Lucia"
INDEX 01 00:00:00
FILE "11. Moraito Siempre (Directo).wav" WAVE
TRACK 11 AUDIO
TITLE "Moraito Siempre (Directo)"
PERFORMER "Paco de Lucia"
INDEX 01 00:00:00
FILE "12. Vamonos (Directo).wav" WAVE
TRACK 12 AUDIO
TITLE "Vamonos (Directo)"
PERFORMER "Paco de Lucia"
INDEX 01 00:00:00
-Огромная благодарность DrStandBy за предоставленный материал!-

[doutdess.info].t81189.torrent
Torrent: Registered [ 2015-10-05 14:30 ] · CAEECCC8E108F8C715DC891437988B628E973D2D

22 KB

Status: checked
Completed: 0 times
Size: 977 MB
(Flamenco, Instrumental, Cante) Paco de Lucia - La Busqueda (2CD) - 2014, FLAC (tracks+.cue), lossless скачать торрент бесплатно и без регистрации

[Profile] [PM]
Forum Topic Author Size
Фламенко и акустическая гитара lossless (Flamenco, Acoustic guitar) Carlos Villalobos - La Esperanza - 1998, APE (image+.cue), lossless RelizMAN 383 MB
Фламенко и акустическая гитара lossless (Flamenco, Acoustic Jazz) Al di Meola, John McLaughlin, Paco de Lucia - 1981 - Friday Night in San Francisco, FLAC (image+.cue) lossless RelizMAN 222 MB
Фламенко и акустическая гитара lossless (Flamenco, Acoustic) [CD] Oscar Guzman - La Calle del Recuerdo - 2013, FLAC (tracks+.cue), lossless RelizMAN 247 MB
Фламенко и акустическая гитара lossy (Flamenco, Arabic music) Karim Baggili - Apollo You Sixteen - 2016, MP3, 320 kbps Vi$itReal 116 MB
Фламенко и акустическая гитара lossless (Flamenco, Boleros, Ethnic Fusion) [CD] Vicente Amigo - Apasionadas Cuerdas del Alma - 2015, FLAC (image+.cue), lossless RelizMAN 375 MB
Фламенко и акустическая гитара lossless (Flamenco, Classical, Andalusian music, Baroque) [WEB] Euskal Barrokensemble, Enrique Solinis - El Amor Brujo, Esencias de la música de Manuel de Falla - 2017, FLAC (tracks), lossless RelizMAN 243 MB
Фламенко и акустическая гитара lossless (Flamenco, Electronic, Latin, Pop, Vocal) [CD] Chambao - 10 Anos Around The World - 2013, FLAC (tracks+.cue), lossless RelizMAN 697 MB
Фламенко и акустическая гитара lossy (Flamenco, Fado, Acoustic) Agnès (Agnes) Jaoui - Nostalgias - 2015, MP3, 320 kbps Vi$itReal 130 MB
Display posts:    

Current time is: 24-Jun 19:01

All times are UTC + 3



You cannot post new topics in this forum
You cannot reply to topics in this forum
You cannot edit your posts in this forum
You cannot delete your posts in this forum
You cannot vote in polls in this forum
You cannot attach files in this forum
You can download files in this forum