Reply to topic
DL-List and Torrent activity [Update пиров]
Size:  274 MB   |    Registered:  3 years 8 months   |    Completed:  0 times
Seeders:  771  [  0 KB/s  ]   Leechers:  4  [  0 KB/s  ]  
 
     
 
 
Author Message

RelizMAN ®

11

Post 05-Oct-2015 00:31

[Quote]

Patricia Spero - The Healing Harp Volume II
Жанр: New Age, Meditative, Harp
Год издания: 2015
Аудиокодек: FLAC (*.flac)
Тип рипа: image+.cue
Битрейт аудио: lossless, 602 kbps
Продолжительность: 01:03:16
Источник (релизер): rsfsr7 при т.п. MM
Наличие сканов в содержимом раздачи: нет
Трек-лист:
01. Japanese Reflections
02. Celestial Night
03. Serenade
04. Summer Melody
05. Lyrical Waltz
06. An Eastern Journey
07. Serene Peace

Лог создания рипа

Exact Audio Copy V0.99 prebeta 5 from 4. May 2009
Отчёт EAC об извлечении, выполненном 4. сентября 2015, 14:06
Patricia Spero / Healing Harp Volume II (FLAC) by rsfsr7 Obninsk
Дисковод: AXV CD/DVD-ROM Adapter: 1 ID: 0
Режим чтения : ДостоверностьИспользование точного потока : ДаОтключение кэша аудио : ДаИспользование указателей C2 : Нет
Коррекция смещения при чтении : 0Способность читать области Lead-in и Lead-out : НетЗаполнение пропущенных сэмплов тишиной : ДаУдаление блоков с тишиной в начале и конце : НетПри вычислениях CRC использовались нулевые сэмплы : НетИнтерфейс : Встроенный Win32-интерфейс для Win NT/2000
Выходной формат : Пользовательский кодировщикВыбранный битрейт : 768 kBit/sКачество : ВысокийДобавление ID3-тэга : НетУтилита сжатия : C:\Program Files\Exact Audio Copy\FLAC\FLAC.EXEДополнительные параметры : -6 -V -T "ARTIST=%a" -T "TITLE=%t" -T "ALBUM=%g" -T "DATE=%y" -T "TRACKNUMBER=%n" -T "GENRE=%m" -T "COMMENT=%e" %s -o %d
TOC извлечённого CD
Трек | Старт | Длительность | Начальный сектор | Конечный сектор --------------------------------------------------------------------- 1 | 0:00.00 | 10:27.57 | 0 | 47081 2 | 10:27.57 | 8:23.18 | 47082 | 84824 3 | 18:51.00 | 4:26.49 | 84825 | 104823 4 | 23:17.49 | 13:11.49 | 104824 | 164197 5 | 36:29.23 | 9:38.51 | 164198 | 207598 6 | 46:07.74 | 9:18.31 | 207599 | 249479 7 | 55:26.30 | 7:49.53 | 249480 | 284707
Характеристики диапазона извлечения и сообщения об ошибках
Выбранный диапазон
Имя файла C:\Patricia Spero - Healing Harp Volume II (FLAC) by rsfsr7 Obninsk.wav
Пиковый уровень 100.0 % Качество диапазона 100.0 % CRC теста 63179D65 CRC копии 63179D65 Копирование... OK
Ошибок не произошло
Конец отчёта

Лог проверки качества

-----------------------
DON'T MODIFY THIS FILE
-----------------------
PERFORMER: auCDtect Task Manager, ver. 1.5.1RC4 build 1.5.1.5Copyright (c) 2008-2010 y-soft. All rights reservedhttp://y-soft.org
ANALYZER: auCDtect: CD records authenticity detector, version 0.8.2Copyright (c) 2004 Oleg Berngardt. All rights reserved.Copyright (c) 2004 Alexander Djourik. All rights reserved.
FILE: Patricia Spero - Healing Harp Volume II (FLAC) by rsfsr7 Obninsk.flac Size: 285737681 Hash: D0E72D941B5482458DD82A6CB9C845C5 Accuracy: -m0 Conclusion: CDDA 100% Signature: 0A4C076E4426F52ADCC558B2709FB550D8328589

Скриншот спектра частот


[doutdess.info].t81067.torrent
Torrent: Registered [ 2015-10-05 00:30 ] · 6BE0B306E288F6C3FE32DC61E35930614F8E14DD

12 KB

Status: checked
Completed: 0 times
Size: 274 MB
(New Age, Meditative, Harp) Patricia Spero - The Healing Harp Volume II (2015), FLAC (image+.cue), lossless скачать торрент бесплатно и без регистрации

[Profile] [PM]
Forum Topic Author Size
Фламенко и акустическая гитара lossy (New age, Acoustic guitar) Moreza - Crimson Moon - 2011, MP3, 320 kbps Vi$itReal 107 MB
Фламенко и акустическая гитара lossy (New Age, Acoustic guitar) William Ackerman Discography (1976-2010, 14CD) MP3-tracks CBR 320 kbps Vi$itReal 1.41 GB
Фламенко и акустическая гитара lossy (New Age, Acoustic Guitar, Flamenco) Daveed - World of Illusions (2016), MP3, 320 kbps Vi$itReal 75 MB
NewAge & Meditative lossy (New Age, Acoustic) Antonio Morina Gallerio - Old Fashioned Acoustic Music - 2015, MP3, 320 kbps Vi$itReal 135 MB
NewAge & Meditative lossy (New Age, Acoustic, Ambient) Mishroom & The Galactic Family - Along The Same Path - 2016, MP3, 320 kbps Vi$itReal 134 MB
NewAge & Meditative lossless (New Age, Acoustic, Meditative) Ron Korb - \'Flute Traveller\' - 1994, APE (image+.cue), lossless RelizMAN 159 MB
Фольклор, Народная и Этническая музыка собственные оцифровки (New Age, Acoustic, Neofolk) [24/48] Michael Hedges - Aerial Boundaries - 1984, FLAC (image+.cue) RelizMAN 416 MB
Фламенко и акустическая гитара lossless (New Age, Acoustic, Neofolk) [CD] Michael Hedges - Aerial Boundaries - 1984 (2015 Audio Fidelity), FLAC (tracks+.cue), lossless RelizMAN 173 MB
Display posts:    

Current time is: 27-Jun 15:14

All times are UTC + 3



You cannot post new topics in this forum
You cannot reply to topics in this forum
You cannot edit your posts in this forum
You cannot delete your posts in this forum
You cannot vote in polls in this forum
You cannot attach files in this forum
You can download files in this forum