Ответить на тему
Статистика раздачи [Обновить пиров]
Размер:  1,08 GB   |    Зарегистрирован:  7 месяцев 16 дней   |    Скачан:  1 раз
Сидов:  808  [  0 KB/s  ]   Личеров:  8  [  0 KB/s  ]  
 
     
 
 
Автор Сообщение

Vi$itReal ®

12

Создавать темы 09-Авг-2018 03:35

[Цитировать]

Leningrad Philharmonic Orchestra, Yevgeny Mravinsky / Prokofiev - Symphony No. 5 & 6
Формат записи/Источник записи: [SACD-R][OF]
Наличие водяных знаков: Нет
Год издания/переиздания диска: 2016
Жанр: Classical
Издатель (лейбл): Praga Digitals
Продолжительность: 01:17:03
Треклист:
Prokofiev: Symphony No. 5 in B flat major, Op. 100
Leningrad Philharmonic Orchestra, Yevgeny Mravinsky
01. I.Andante
02. II.Allegro marcato
03. III.Adagio
04. IV.Allegro giocoso
Prokofiev: Symphony No. 6 in E flat minor, Op. 111
Leningrad Philharmonic Orchestra, Yevgeny Mravinsky
05. I.Allegro moderato
06. II.Largo
07. III.Vivace
Контейнер: ISO (*.iso)
Тип рипа: image
Разрядность: 64(2,8 MHz/1 Bit)
Формат: DTS
Количество каналов: 2.0

BackCover

Лог проверки качества

foobar2000 1.3.17 / Dynamic Range Meter 1.1.1log date: 2018-05-18 18:46:16
--------------------------------------------------------------------------------Analyzed: Leningrad Philharmonic Orchestra,Yevgeny MRAVINSKY / Sergei PROKOFIEV:SYMPHONY No.5,Op.100,SYMPHONY No.6,Op.111--------------------------------------------------------------------------------
DR Peak RMS Duration Track--------------------------------------------------------------------------------DR12 -7.05 dB -23.90 dB 12:32 01-SYMPHONY No.5 in B flat major,Op.100-I.AndanteDR14 -8.63 dB -27.25 dB 8:11 02-II.Allegro marcatoDR12 -7.64 dB -25.56 dB 10:50 03-III.AdagioDR13 -7.03 dB -25.05 dB 9:03 04-IV.Allegro giocosoDR15 -8.18 dB -28.83 dB 13:13 05-SYMPHONY No.6 in E flat minor,Op.111-I.Allegro moderatoDR13 -7.16 dB -26.04 dB 12:15 06-II.LargoDR13 -6.77 dB -25.11 dB 10:59 07-III.Vivace--------------------------------------------------------------------------------
Number of tracks: 7Official DR value: DR13
Samplerate: 2822400 Hz / PCM Samplerate: 88200 HzChannels: 2Bits per sample: 1Bitrate: 5645 kbpsCodec: DST64================================================================================
Доп. информация:
http://www.pragadigitals.com/epages/265941.sf/en_US/?ObjectPath=/Shops/265941/Products/350121
https://www.amazon.com/Prokofiev-Symphonies-Leningrad-Philharmonic-Orchestra/dp/B01B7PALFA
https://www.prestoclassical.co.uk/classical/products/8112898--prokofiev-symphonies-nos-5-6
Источник (релизер): собственный рип
Оркестр: Leningrad Philharmonic Orchestra
Композитор: Sergei Prokofiev
Дирижер: Yevgeny Mravinsky

[doutdess.info].t283176.torrent
Торрент: Зарегистрирован [ 2018-08-09 03:35 ] · 5F67826725A71D7A835C07474B80A55D4E918309

44 KB

Статус: проверено
Скачан: 1 раз
Размер: 1,08 GB
[SACD-R][OF] Prokofiev - Symphony No. 5 & 6 (Leningrad Philharmonic Orchestra, Yevgeny Mravinsky) - 2016 (Classical) скачать торрент бесплатно и без регистрации

[Профиль] [ЛС]
Форум Тема Автор Размер
Hi-Res stereo классика и классика в современной обработке [SACD-R][OF] (Andre) André Cluytens, Orchestre de la Société des Concerts du Concervatoire - Georges Bizet: L\'Arlésienne Suites Nos. 1 & 2, Carmen Suite - 1965/2011... Vi$itReal 1,84 GB
Hi-Res stereo классика и классика в современной обработке [SACD-R][OF] (Classical, Double Bass, Organ) Gary Karr - Adagio D\'Albinoni - 2014 (Beethoven, Franck, Handel, J.S. Bach) - 2014 Vi$itReal 1,64 GB
Многоканальная музыка классика и классика в современной обработке [SACD-R][OF] (Parkanyi Quartet) Párkányi Quartet - Claude Debussy & Maurice Ravel: String Quartets - 2004 (Classical; Chamber; Strings) RelizMAN 2,92 GB
Многоканальная музыка классика и классика в современной обработке [SACD-R][OF] (Prazak) Pražák Quartet - Дмитрий Шостакович / Dmitri Shostakovich: String Quartets No. 14 & 15 - 2014 (Classical; Chamber; Strings) RelizMAN 3,88 GB
Многоканальная музыка классика и классика в современной обработке [SACD-R][OF] Alan Civil, Sir Neville Marriner, Academy St. Martin in The Fields - Mozart: The 4 Horn Concertos - 1972/2002 (Orchestral, Horn) RelizMAN 3,22 GB
Hi-Res stereo классика и классика в современной обработке [SACD-R][OF] Alban Berg Quartett - Haydn: Emperor Quartet, Mozart: Hunt Quartet - 2014 (Classical; Chamber) Vi$itReal 2,13 GB
Многоканальная музыка классика и классика в современной обработке [SACD-R][OF] Alexei & Michael Utkins / Алексей и Михаил Уткины, Hermitage Chamber Orchestra / Камерный Оркестр "Эрмитаж" - Dimitry Shostakovich: Preludes & Ballet Suites - 2006... RelizMAN 3,32 GB
Многоканальная музыка классика и классика в современной обработке [SACD-R][OF] Alexei Utkin / Алексей Уткин, Hermitage Chamber Orchestra / Камерный Оркестр "Эрмитаж" - Benjamin Britten: The Complete Works for Oboe - 2004 (Chamber) RelizMAN 2,62 GB
Показать сообщения:    

Текущее время: 25-Мар 21:06

Часовой пояс: UTC + 3



Вы не можете начинать темы
Вы не можете отвечать на сообщения
Вы не можете редактировать свои сообщения
Вы не можете удалять свои сообщения
Вы не можете голосовать в опросах
Вы не можете прикреплять файлы к сообщениям
Вы можете скачивать файлы