Reply to topic
DL-List and Torrent activity [Update пиров]
Size:  2.4 GB   |    Registered:  3 years 9 months   |    Completed:  1 time
Seeders:  575  [  0 KB/s  ]   Leechers:  2  [  0 KB/s  ]  
 
     
 
 
Author Message

RelizMAN ®

11

Post 05-Oct-2015 14:31

[Quote]

Rodrigo y Gabriela Жанр: Acoustic, Flamenco, Classical Guitar
Год издания: 2002-2014
Страна: Mexico
Битрейт аудио: lossless
Продолжительность: 06:30:55
Наличие сканов в содержимом раздачи: нет

Albums2002 - Re-Foc

Страна-производитель диска: USA
Издатель (лейбл): Rubyworks Records
Номер по каталогу: RWXCD03
Аудиокодек: FLAC (*.flac)
Тип рипа: image+.cue
Продолжительность: 00:40:19
Источник (релизер): CD из личной коллекции
Треклист:
01. Diem [4:50]
02. New One [6:09]
03. Foc [5:39]
04. Georges Street The Tartar Frigate [4:21]
05. 30 de Marzo [4:14]
06. Paris [3:52]
07. Take 5 (Foc-ing Version 9) [6:44]
08. Temple Bar [4:27]

Отчёт EAC

Exact Audio Copy V1.0 beta 3 from 29. August 2011
Отчёт EAC об извлечении, выполненном 26. сентября 2014, 19:57
Rodrigo y Gabriela / Re-Foc
Дисковод: ASUS BW-12B1ST Adapter: 3 ID: 0
Режим чтения : ДостоверностьИспользование точного потока : ДаОтключение кэша аудио : ДаИспользование указателей C2 : Нет
Коррекция смещения при чтении : 6Способность читать области Lead-in и Lead-out : НетЗаполнение пропущенных сэмплов тишиной : ДаУдаление блоков с тишиной в начале и конце : НетПри вычислениях CRC использовались нулевые сэмплы : ДаИнтерфейс : Встроенный Win32-интерфейс для Win NT/2000
Выходной формат : Внутренние WAV-операцииФормат сэмплов : 44.100 Гц; 16 бит; стерео
TOC извлечённого CD
Трек | Старт | Длительность | Начальный сектор | Конечный сектор --------------------------------------------------------------------- 1 | 0:00.00 | 4:50.58 | 0 | 21807 2 | 4:50.58 | 6:09.61 | 21808 | 49543 3 | 11:00.44 | 5:39.04 | 49544 | 74972 4 | 16:39.48 | 4:21.11 | 74973 | 94558 5 | 21:00.59 | 4:14.70 | 94559 | 113678 6 | 25:15.54 | 3:52.24 | 113679 | 131102 7 | 29:08.03 | 6:44.00 | 131103 | 161402 8 | 35:52.03 | 4:27.57 | 161403 | 181484
Характеристики диапазона извлечения и сообщения об ошибках
Выбранный диапазон
Имя файла D:\EAC\Rodrigo y Gabriela - 2002 - Re-Foc (Rubyworks Records - RWXCD03)\Rodrigo y Gabriela - 2002 - Re-Foc.wav
Пиковый уровень 94.4 % Скорость извлечения 3.0 X Качество диапазона 100.0 % CRC теста C222F0C1 CRC копии C222F0C1 Копирование... OK
Ошибок не произошло
AccurateRip: сводка
Трек 1 : извлечено точно (доверие 21) [A51E1411] (AR v2)Трек 2 : извлечено точно (доверие 22) [4F489F97] (AR v2)Трек 3 : извлечено точно (доверие 22) [03241B34] (AR v2)Трек 4 : извлечено точно (доверие 22) [4F16420C] (AR v2)Трек 5 : извлечено точно (доверие 22) [1A7249E5] (AR v2)Трек 6 : извлечено точно (доверие 22) [9541FFDB] (AR v2)Трек 7 : извлечено точно (доверие 22) [F41CF29C] (AR v2)Трек 8 : извлечено точно (доверие 22) [A92A0F06] (AR v2)
Все треки извлечены точно
Конец отчёта
==== Контрольная сумма отчёта 40655B0DF9631CB0752AF2E8F40D0539822433E80C4C18E6A7CDAEB38B36FC1F ====

2006 - Rodrigo y Gabriela

Страна-производитель диска: USA
Издатель (лейбл): ATO Records
Номер по каталогу: ATO0030, 88088-21557-2
Аудиокодек: FLAC (*.flac)
Тип рипа: image+.cue
Продолжительность: 00:42:52
Источник (релизер): CD из личной коллекции
Треклист:
01. Tamacun [3:25]
02. Diablo Rojo [4:56]
03. Vikingman [4:03]
04. Satori [5:04]
05. Ixtapa [5:13]
06. Stairway To Heaven [4:44]
07. Orion [7:44]
08. Juan Loco [3:27]
09. PPA [4:12]

Отчёт EAC

Exact Audio Copy V1.0 beta 3 from 29. August 2011
Отчёт EAC об извлечении, выполненном 26. сентября 2014, 21:41
Rodrigo y Gabriela / Rodrigo y Gabriela
Дисковод: ASUS BW-12B1ST Adapter: 3 ID: 0
Режим чтения : ДостоверностьИспользование точного потока : ДаОтключение кэша аудио : ДаИспользование указателей C2 : Нет
Коррекция смещения при чтении : 6Способность читать области Lead-in и Lead-out : НетЗаполнение пропущенных сэмплов тишиной : ДаУдаление блоков с тишиной в начале и конце : НетПри вычислениях CRC использовались нулевые сэмплы : ДаИнтерфейс : Встроенный Win32-интерфейс для Win NT/2000
Выходной формат : Внутренние WAV-операцииФормат сэмплов : 44.100 Гц; 16 бит; стерео
TOC извлечённого CD
Трек | Старт | Длительность | Начальный сектор | Конечный сектор --------------------------------------------------------------------- 1 | 0:00.00 | 3:25.60 | 0 | 15434 2 | 3:25.60 | 4:56.60 | 15435 | 37694 3 | 8:22.45 | 4:03.24 | 37695 | 55943 4 | 12:25.69 | 5:04.30 | 55944 | 78773 5 | 17:30.24 | 5:13.73 | 78774 | 102321 6 | 22:44.22 | 4:44.15 | 102322 | 123636 7 | 27:28.37 | 7:44.00 | 123637 | 158436 8 | 35:12.37 | 3:27.31 | 158437 | 173992 9 | 38:39.68 | 4:12.26 | 173993 | 192918
Характеристики диапазона извлечения и сообщения об ошибках
Выбранный диапазон
Имя файла D:\EAC\Rodrigo y Gabriela - 2006 - Rodrigo y Gabriela (ATO Records - ATO0030, 88088-21557-2)\Rodrigo y Gabriela - 2006 - Rodrigo y Gabriela.wav
Пиковый уровень 100.0 % Скорость извлечения 6.6 X Качество диапазона 99.9 % CRC теста A539FB76 CRC копии A539FB76 Копирование... OK
Ошибок не произошло
AccurateRip: сводка
Трек 1 : извлечено точно (доверие 17) [D5426245] (AR v2)Трек 2 : извлечено точно (доверие 17) [6E1BFAE7] (AR v2)Трек 3 : извлечено точно (доверие 17) [5A20BF20] (AR v2)Трек 4 : извлечено точно (доверие 17) [41028813] (AR v2)Трек 5 : извлечено точно (доверие 17) [2BC9F25D] (AR v2)Трек 6 : извлечено точно (доверие 17) [69E0CC9D] (AR v2)Трек 7 : извлечено точно (доверие 17) [BE4F402B] (AR v2)Трек 8 : извлечено точно (доверие 17) [647D5B73] (AR v2)Трек 9 : извлечено точно (доверие 17) [3810103A] (AR v2)
Все треки извлечены точно
Конец отчёта
==== Контрольная сумма отчёта E55D1BAEF9D3355CBD76DDA237E7CFFC32E997FC5A525C32CDE9895A2932460F ====

2009 - 11:11

Страна-производитель диска: USA
Издатель (лейбл): ATO Records
Номер по каталогу: ATO0080
Аудиокодек: FLAC (*.flac)
Тип рипа: image+.cue
Продолжительность: 00:45:45
Источник (релизер): CD из личной коллекции
Треклист:
01. Hanuman [3:43]
02. Buster Voodoo [4:24]
03. Triveni [3:55]
04. Logos [2:50]
05. Santo Domingo [4:02]
06. Master Maqui [5:05]
07. Savitri [3:46]
08. Hora Zero [5:24]
09. Chac Mool [1:51]
10. Atman [5:50]
11. 11:11 [4:49]

Отчёт EAC

Exact Audio Copy V1.0 beta 3 from 29. August 2011
Отчёт EAC об извлечении, выполненном 26. сентября 2014, 21:20
Rodrigo y Gabriela / 11:11
Дисковод: ASUS BW-12B1ST Adapter: 3 ID: 0
Режим чтения : ДостоверностьИспользование точного потока : ДаОтключение кэша аудио : ДаИспользование указателей C2 : Нет
Коррекция смещения при чтении : 6Способность читать области Lead-in и Lead-out : НетЗаполнение пропущенных сэмплов тишиной : ДаУдаление блоков с тишиной в начале и конце : НетПри вычислениях CRC использовались нулевые сэмплы : ДаИнтерфейс : Встроенный Win32-интерфейс для Win NT/2000
Выходной формат : Внутренние WAV-операцииФормат сэмплов : 44.100 Гц; 16 бит; стерео
TOC извлечённого CD
Трек | Старт | Длительность | Начальный сектор | Конечный сектор --------------------------------------------------------------------- 1 | 0:00.00 | 3:43.13 | 0 | 16737 2 | 3:43.13 | 4:24.06 | 16738 | 36543 3 | 8:07.19 | 3:55.55 | 36544 | 54223 4 | 12:02.74 | 2:50.72 | 54224 | 67045 5 | 14:53.71 | 4:02.59 | 67046 | 85254 6 | 18:56.55 | 5:05.68 | 85255 | 108197 7 | 24:02.48 | 3:46.72 | 108198 | 125219 8 | 27:49.45 | 5:24.38 | 125220 | 149557 9 | 33:14.08 | 1:51.25 | 149558 | 157907 10 | 35:05.33 | 5:50.73 | 157908 | 184230 11 | 40:56.31 | 4:49.43 | 184231 | 205948
Характеристики диапазона извлечения и сообщения об ошибках
Выбранный диапазон
Имя файла D:\EAC\Rodrigo y Gabriela - 2009 - 11-11 (ATO Records - ATO0080)\Rodrigo y Gabriela - 2009 - 11-11.wav
Пиковый уровень 98.7 % Скорость извлечения 3.0 X Качество диапазона 99.9 % CRC теста 5D7FA740 CRC копии 5D7FA740 Копирование... OK
Ошибок не произошло
AccurateRip: сводка
Трек 1 : извлечено точно (доверие 3) [05CDB475] (AR v2)Трек 2 : извлечено точно (доверие 3) [06262B47] (AR v2)Трек 3 : извлечено точно (доверие 3) [F13B0134] (AR v2)Трек 4 : извлечено точно (доверие 3) [F0592B50] (AR v2)Трек 5 : извлечено точно (доверие 3) [38CB437B] (AR v2)Трек 6 : извлечено точно (доверие 3) [6503C652] (AR v2)Трек 7 : извлечено точно (доверие 3) [C3B6D749] (AR v2)Трек 8 : извлечено точно (доверие 3) [9DA0BFC8] (AR v2)Трек 9 : извлечено точно (доверие 3) [C5DD19EE] (AR v2)Трек 10 : извлечено точно (доверие 3) [CDC8AB97] (AR v2)Трек 11 : извлечено точно (доверие 3) [CEE74F28] (AR v2)
Все треки извлечены точно
Конец отчёта
==== Контрольная сумма отчёта A206201D830EEB1CFBEED931C7E0CD79A8072294CAEF577867A2E14D76ADF9C2 ====

2014 - 9 Dead Alive

Страна-производитель диска: USA
Издатель (лейбл): ATO Records
Номер по каталогу: ATO0235
Аудиокодек: FLAC (*.flac)
Тип рипа: image+.cue
Продолжительность: 00:41:01
Источник (релизер): CD из личной коллекции
Треклист:
01. The Soundmaker [4:52]
02. Torito [5:03]
03. Sunday Neurosis [5:16]
04. Misty Moses [4:39]
05. Somnium [3:43]
06. Fram [4:31]
07. Megalopolis [5:01]
08. The Russian Messenger [4:52]
09. La Salle Des Pas Perdus [3:01]

Отчёт EAC

Exact Audio Copy V1.0 beta 3 from 29. August 2011
Отчёт EAC об извлечении, выполненном 27. сентября 2014, 0:25
Rodrigo y Gabriela / 9 Dead Alive
Дисковод: ASUS BW-12B1ST Adapter: 3 ID: 0
Режим чтения : ДостоверностьИспользование точного потока : ДаОтключение кэша аудио : ДаИспользование указателей C2 : Нет
Коррекция смещения при чтении : 6Способность читать области Lead-in и Lead-out : НетЗаполнение пропущенных сэмплов тишиной : ДаУдаление блоков с тишиной в начале и конце : НетПри вычислениях CRC использовались нулевые сэмплы : ДаИнтерфейс : Встроенный Win32-интерфейс для Win NT/2000
Выходной формат : Внутренние WAV-операцииФормат сэмплов : 44.100 Гц; 16 бит; стерео
TOC извлечённого CD
Трек | Старт | Длительность | Начальный сектор | Конечный сектор --------------------------------------------------------------------- 1 | 0:00.00 | 4:52.43 | 0 | 21942 2 | 4:52.43 | 5:03.16 | 21943 | 44683 3 | 9:55.59 | 5:16.04 | 44684 | 68387 4 | 15:11.63 | 4:39.20 | 68388 | 89332 5 | 19:51.08 | 3:43.14 | 89333 | 106071 6 | 23:34.22 | 4:31.00 | 106072 | 126396 7 | 28:05.22 | 5:01.18 | 126397 | 148989 8 | 33:06.40 | 4:52.41 | 148990 | 170930 9 | 37:59.06 | 3:01.73 | 170931 | 184578
Характеристики диапазона извлечения и сообщения об ошибках
Выбранный диапазон
Имя файла D:\EAC\Rodrigo y Gabriela - 2014 - 9 Dead Alive (ATO Records - ATO0235)\Rodrigo y Gabriela - 2014 - 9 Dead Alive.wav
Пиковый уровень 100.0 % Скорость извлечения 7.4 X Качество диапазона 100.0 % CRC теста AAEBA2F7 CRC копии AAEBA2F7 Копирование... OK
Ошибок не произошло
AccurateRip: сводка
Трек 1 : извлечено точно (доверие 54) [C03F5E50] (AR v2)Трек 2 : извлечено точно (доверие 54) [1D5EEC94] (AR v2)Трек 3 : извлечено точно (доверие 54) [D17E82A6] (AR v2)Трек 4 : извлечено точно (доверие 54) [5D5229EA] (AR v2)Трек 5 : извлечено точно (доверие 54) [628FD82C] (AR v2)Трек 6 : извлечено точно (доверие 54) [7D4386BE] (AR v2)Трек 7 : извлечено точно (доверие 54) [B8B760E2] (AR v2)Трек 8 : извлечено точно (доверие 53) [571DC33F] (AR v2)Трек 9 : извлечено точно (доверие 53) [8CA5952D] (AR v2)
Все треки извлечены точно
Конец отчёта
==== Контрольная сумма отчёта 753E6173A72F3A5C6111B8E1B6A21DD6322629BD29EED8CA3A10B157348D56D5 ====

Rodrigo y Gabriela and C.U.B.A. - 2012 - Area 52

Страна-производитель диска: USA
Издатель (лейбл): ATO Records
Номер по каталогу: ATO0136
Аудиокодек: FLAC (*.flac)
Тип рипа: image+.cue
Продолжительность: 00:54:01
Источник (релизер): CD из личной коллекции
Треклист:
01. Santo Domingo [6:31]
02. Hanuman [5:34]
03. Ixtapa [8:12]
04. 11:11 [7:30]
05. Master Maqui [5:13]
06. Diablo Rojo [5:10]
07. Logos [4:46]
08. Juan Loco [4:09]
09. Tamacun [6:55]

Отчёт EAC

Exact Audio Copy V1.0 beta 3 from 29. August 2011
Отчёт EAC об извлечении, выполненном 26. сентября 2014, 23:25
Rodrigo y Gabriela and C.U.B.A. / Area 52
Дисковод: ASUS BW-12B1ST Adapter: 3 ID: 0
Режим чтения : ДостоверностьИспользование точного потока : ДаОтключение кэша аудио : ДаИспользование указателей C2 : Нет
Коррекция смещения при чтении : 6Способность читать области Lead-in и Lead-out : НетЗаполнение пропущенных сэмплов тишиной : ДаУдаление блоков с тишиной в начале и конце : НетПри вычислениях CRC использовались нулевые сэмплы : ДаИнтерфейс : Встроенный Win32-интерфейс для Win NT/2000
Выходной формат : Внутренние WAV-операцииФормат сэмплов : 44.100 Гц; 16 бит; стерео
TOC извлечённого CD
Трек | Старт | Длительность | Начальный сектор | Конечный сектор --------------------------------------------------------------------- 1 | 0:00.00 | 6:31.19 | 0 | 29343 2 | 6:31.19 | 5:33.63 | 29344 | 54381 3 | 12:05.07 | 8:11.68 | 54382 | 91274 4 | 20:17.00 | 7:30.71 | 91275 | 125095 5 | 27:47.71 | 5:13.28 | 125096 | 148598 6 | 33:01.24 | 5:09.28 | 148599 | 171801 7 | 38:10.52 | 4:46.14 | 171802 | 193265 8 | 42:56.66 | 4:09.12 | 193266 | 211952 9 | 47:06.03 | 6:55.53 | 211953 | 243130
Характеристики диапазона извлечения и сообщения об ошибках
Выбранный диапазон
Имя файла D:\EAC\Rodrigo y Gabriela and C.U.B.A. - 2012 - Area 52 (ATO Records - ATO0136)\Rodrigo y Gabriela and C.U.B.A. - 2012 - Area 52.wav
Пиковый уровень 100.0 % Скорость извлечения 3.3 X Качество диапазона 100.0 % CRC теста B60463B5 CRC копии B60463B5 Копирование... OK
Ошибок не произошло
AccurateRip: сводка
Трек 1 : извлечено точно (доверие 65) [1DFEF6FD] (AR v2)Трек 2 : извлечено точно (доверие 65) [1FA89778] (AR v2)Трек 3 : извлечено точно (доверие 65) [DF0E55AC] (AR v2)Трек 4 : извлечено точно (доверие 65) [26FBDDD0] (AR v2)Трек 5 : извлечено точно (доверие 65) [E2B87FC8] (AR v2)Трек 6 : извлечено точно (доверие 65) [86DF0746] (AR v2)Трек 7 : извлечено точно (доверие 65) [B6138218] (AR v2)Трек 8 : извлечено точно (доверие 65) [086F3CC0] (AR v2)Трек 9 : извлечено точно (доверие 62) [D4890C0B] (AR v2)
Все треки извлечены точно
Конец отчёта
==== Контрольная сумма отчёта 9A79C771F0CFCD2374BB377B07889EBC876BB08E0316AD42FB3D4E8AB09EC262 ====

Live Albums2004 - Live Manchester and Dublin

Страна-производитель диска: USA
Издатель (лейбл): Rubyworks Records
Номер по каталогу: RWXCD12
Аудиокодек: FLAC (*.flac)
Тип рипа: image+.cue
Продолжительность: 00:36:54
Источник (релизер): CD из личной коллекции
Треклист:
01. Foc [06:50]
02. Hola [0:39]
03. One / Take 5 [6:47]
04. Mr Tang [3:36]
05. Paris [3:49]
06. Libertango [3:13]
07. Capitan Casanova [4:00]
08. One [7:57]

Отчёт EAC

Exact Audio Copy V1.0 beta 3 from 29. August 2011
Отчёт EAC об извлечении, выполненном 27. сентября 2014, 0:05
Rodrigo y Gabriela / Live Manchester and Dublin
Дисковод: ASUS BW-12B1ST Adapter: 3 ID: 0
Режим чтения : ДостоверностьИспользование точного потока : ДаОтключение кэша аудио : ДаИспользование указателей C2 : Нет
Коррекция смещения при чтении : 6Способность читать области Lead-in и Lead-out : НетЗаполнение пропущенных сэмплов тишиной : ДаУдаление блоков с тишиной в начале и конце : НетПри вычислениях CRC использовались нулевые сэмплы : ДаИнтерфейс : Встроенный Win32-интерфейс для Win NT/2000
Выходной формат : Внутренние WAV-операцииФормат сэмплов : 44.100 Гц; 16 бит; стерео
TOC извлечённого CD
Трек | Старт | Длительность | Начальный сектор | Конечный сектор --------------------------------------------------------------------- 1 | 0:00.00 | 6:50.01 | 0 | 30750 2 | 6:50.01 | 0:39.26 | 30751 | 33701 3 | 7:29.27 | 6:47.58 | 33702 | 64284 4 | 14:17.10 | 3:36.38 | 64285 | 80522 5 | 17:53.48 | 3:49.27 | 80523 | 97724 6 | 21:43.00 | 3:13.65 | 97725 | 112264 7 | 24:56.65 | 4:00.01 | 112265 | 130265 8 | 28:56.66 | 7:57.68 | 130266 | 166108 9 | 39:26.59 | 7:17.26 | 177509 | 210309
Характеристики диапазона извлечения и сообщения об ошибках
Выбранный диапазон
Имя файла D:\EAC\Rodrigo y Gabriela - 2004 - Live Manchester and Dublin (Rubyworks Records - RWXCD12)\Rodrigo y Gabriela - 2004 - Live Manchester and Dublin.wav
Пиковый уровень 98.9 % Скорость извлечения 3.0 X Качество диапазона 99.9 % CRC теста 6BD8181F CRC копии 6BD8181F Копирование... OK
Ошибок не произошло
AccurateRip: сводка
Трек 1 : извлечено точно (доверие 6) [EDD37DFB] (AR v2)Трек 2 : извлечено точно (доверие 6) [597F2F29] (AR v2)Трек 3 : извлечено точно (доверие 6) [63654D6B] (AR v2)Трек 4 : извлечено точно (доверие 6) [8B1FAC98] (AR v2)Трек 5 : извлечено точно (доверие 6) [46FAEFE4] (AR v2)Трек 6 : извлечено точно (доверие 6) [DED78E42] (AR v2)Трек 7 : извлечено точно (доверие 6) [5043D066] (AR v2)Трек 8 : извлечено точно (доверие 6) [7DA53930] (AR v2)
Все треки извлечены точно
Конец отчёта
==== Контрольная сумма отчёта 72C15E1EEC40C8B99F3331D2B94FBE8DE8688AA0FF1CAB21172BDC94B1E61A03 ====

2008 - Live In Japan

Страна-производитель диска: USA
Издатель (лейбл): ATO Records
Номер по каталогу: ATO0235
Аудиокодек: FLAC (*.flac)
Тип рипа: image+.cue
Продолжительность: 01:15:43
Источник (релизер): CD из личной коллекции
Треклист:
01. Ok Tokyo [5:42]
02. Juan Loco [5:52]
03. Orion [2:57]
04. Foc [10:42]
05. Satori [5:31]
06. Ixtapa [4:43]
07. Vikingman [3:53]
08. Take Five [5:17]
09. One [5:03]
10. Gabriela Solo [4:18]
11. Rodrigo Solo [3:28]
12. Stairway to Heaven [5:19]
13. Tamacun [6:18]
14. Diablo Rojo [5:34]

Отчёт EAC

Exact Audio Copy V1.0 beta 3 from 29. August 2011
Отчёт EAC об извлечении, выполненном 27. сентября 2014, 13:39
Rodrigo y Gabriela / Live In Japan
Дисковод: ASUS BW-12B1ST Adapter: 3 ID: 0
Режим чтения : ДостоверностьИспользование точного потока : ДаОтключение кэша аудио : ДаИспользование указателей C2 : Нет
Коррекция смещения при чтении : 6Способность читать области Lead-in и Lead-out : НетЗаполнение пропущенных сэмплов тишиной : ДаУдаление блоков с тишиной в начале и конце : НетПри вычислениях CRC использовались нулевые сэмплы : ДаИнтерфейс : Встроенный Win32-интерфейс для Win NT/2000
Выходной формат : Внутренние WAV-операцииФормат сэмплов : 44.100 Гц; 16 бит; стерео
TOC извлечённого CD
Трек | Старт | Длительность | Начальный сектор | Конечный сектор --------------------------------------------------------------------- 1 | 0:00.00 | 5:42.00 | 0 | 25649 2 | 5:42.00 | 5:52.47 | 25650 | 52096 3 | 11:34.47 | 2:57.39 | 52097 | 65410 4 | 14:32.11 | 10:42.74 | 65411 | 113634 5 | 25:15.10 | 5:31.30 | 113635 | 138489 6 | 30:46.40 | 5:43.16 | 138490 | 164230 7 | 36:29.56 | 3:53.31 | 164231 | 181736 8 | 40:23.12 | 5:17.41 | 181737 | 205552 9 | 45:40.53 | 5:03.69 | 205553 | 228346 10 | 50:44.47 | 4:18.69 | 228347 | 247765 11 | 55:03.41 | 3:28.69 | 247766 | 263434 12 | 58:32.35 | 5:19.25 | 263435 | 287384 13 | 63:51.60 | 6:18.15 | 287385 | 315749 14 | 70:10.00 | 5:34.00 | 315750 | 340799
Характеристики диапазона извлечения и сообщения об ошибках
Выбранный диапазон
Имя файла D:\EAC\Rodrigo y Gabriela - 2008 - Live In Japan (ATO Records - ATO0062, 88088-21638-2)\Rodrigo y Gabriela - 2008 - Live In Japan.wav
Пиковый уровень 98.8 % Скорость извлечения 3.9 X Качество диапазона 100.0 % CRC теста CD236F2C CRC копии CD236F2C Копирование... OK
Ошибок не произошло
AccurateRip: сводка
Трек 1 : извлечено точно (доверие 54) [6950D61B] (AR v2)Трек 2 : извлечено точно (доверие 55) [8FA2C7D0] (AR v2)Трек 3 : извлечено точно (доверие 55) [F46E7543] (AR v2)Трек 4 : извлечено точно (доверие 55) [16A66208] (AR v2)Трек 5 : извлечено точно (доверие 55) [9CDFEF2C] (AR v2)Трек 6 : извлечено точно (доверие 56) [C87D95E0] (AR v2)Трек 7 : извлечено точно (доверие 56) [E930E5C5] (AR v2)Трек 8 : извлечено точно (доверие 54) [4E2B5B76] (AR v2)Трек 9 : извлечено точно (доверие 54) [EDDA1DD5] (AR v2)Трек 10 : извлечено точно (доверие 54) [B44E36DF] (AR v2)Трек 11 : извлечено точно (доверие 54) [F2A5CF5F] (AR v2)Трек 12 : извлечено точно (доверие 55) [E265DDA0] (AR v2)Трек 13 : извлечено точно (доверие 54) [0871EE5A] (AR v2)Трек 14 : извлечено точно (доверие 54) [A3DAD00A] (AR v2)
Все треки извлечены точно
Конец отчёта
==== Контрольная сумма отчёта 619ACE8990E5F07EDA95B395A1706F6F2A71DE9B5D64E5B1EADC0D2508AA6DA0 ====

2011 - Live in France

Страна-производитель диска: USA
Издатель (лейбл): ATO Records
Номер по каталогу: ATO0104
Аудиокодек: FLAC (*.flac)
Тип рипа: image+.cue
Продолжительность: 00:54:15
Источник (релизер): CD из личной коллекции
Треклист:
01. Hanuman [4:47]
02. Triveni [4:28]
03. Chac Mool [1:10]
04. Hora Zero [5:51]
05. Santo Domingo [6:27]
06. Gabriela Solo [4:11]
07. Buster Voodoo [5:26]
08. 11:11 [5:16]
09. Rodrigo Solo [6:32]
10. Savitri [4:01]
11. Tamacun [6:01]

Отчёт EAC

Exact Audio Copy V1.0 beta 3 from 29. August 2011
Отчёт EAC об извлечении, выполненном 27. сентября 2014, 12:55
Rodrigo y Gabriela / Live in France
Дисковод: ASUS BW-12B1ST Adapter: 3 ID: 0
Режим чтения : ДостоверностьИспользование точного потока : ДаОтключение кэша аудио : ДаИспользование указателей C2 : Нет
Коррекция смещения при чтении : 6Способность читать области Lead-in и Lead-out : НетЗаполнение пропущенных сэмплов тишиной : ДаУдаление блоков с тишиной в начале и конце : НетПри вычислениях CRC использовались нулевые сэмплы : ДаИнтерфейс : Встроенный Win32-интерфейс для Win NT/2000
Выходной формат : Внутренние WAV-операцииФормат сэмплов : 44.100 Гц; 16 бит; стерео
TOC извлечённого CD
Трек | Старт | Длительность | Начальный сектор | Конечный сектор --------------------------------------------------------------------- 1 | 0:00.00 | 4:47.73 | 0 | 21597 2 | 4:47.73 | 4:28.41 | 21598 | 41738 3 | 9:16.39 | 1:10.62 | 41739 | 47050 4 | 10:27.26 | 5:51.61 | 47051 | 73436 5 | 16:19.12 | 6:27.21 | 73437 | 102482 6 | 22:46.33 | 4:11.08 | 102483 | 121315 7 | 26:57.41 | 5:26.07 | 121316 | 145772 8 | 32:23.48 | 5:16.06 | 145773 | 169478 9 | 37:39.54 | 6:32.28 | 169479 | 198906 10 | 44:12.07 | 4:01.54 | 198907 | 217035 11 | 48:13.61 | 6:01.73 | 217036 | 244183
Характеристики диапазона извлечения и сообщения об ошибках
Выбранный диапазон
Имя файла D:\EAC\Rodrigo y Gabriela - 2011 - Live in France (ATO Records - ATO0104)\Rodrigo y Gabriela - 2011 - Live in France.wav
Пиковый уровень 100.0 % Скорость извлечения 7.1 X Качество диапазона 100.0 % CRC теста A4126F56 CRC копии A4126F56 Копирование... OK
Ошибок не произошло
AccurateRip: сводка
Трек 1 : извлечено точно (доверие 23) [0F616472] (AR v2)Трек 2 : извлечено точно (доверие 23) [8E90F8F9] (AR v2)Трек 3 : извлечено точно (доверие 23) [18E9C743] (AR v2)Трек 4 : извлечено точно (доверие 23) [91AF1859] (AR v2)Трек 5 : извлечено точно (доверие 23) [AB1905BF] (AR v2)Трек 6 : извлечено точно (доверие 23) [87F9CC9A] (AR v2)Трек 7 : извлечено точно (доверие 23) [C98AD97A] (AR v2)Трек 8 : извлечено точно (доверие 23) [65054D0D] (AR v2)Трек 9 : извлечено точно (доверие 23) [88F991D3] (AR v2)Трек 10 : извлечено точно (доверие 23) [07266EB5] (AR v2)Трек 11 : извлечено точно (доверие 23) [968D5A19] (AR v2)
Все треки извлечены точно
Конец отчёта
==== Контрольная сумма отчёта 25076741A7F3EA250FBF731BC83ED19D6711DC10781782F5C47C400AEE1C1319 ====
Rodrigo y Gabriela
[doutdess.info].t81224.torrent
Torrent: Registered [ 2015-10-05 14:30 ] · 90E42618BED9F2EF545FA2B21DE4B7A303A5ACB1

16 KB

Status: checked
Completed: 1 times
Size: 2.4 GB
(Acoustic, Flamenco, Classical Guitar) Rodrigo y Gabriela - Дискография (8 CD), 2002-2014, FLAC (image+.cue), lossless скачать торрент бесплатно и без регистрации

[Profile] [PM]
Forum Topic Author Size
Country, Bluegrass lossy (Acoustic, Alternative country, Folk) Cary Hudson - Seems to Me - 2010, MP3, V0 Vi$itReal 97 MB
Фламенко и акустическая гитара lossy (Acoustic, Americana, Folk-Rock, Singer/Songwriter) David Munyon - Коллекция 1995-2011 (15 альбомов), MP3, 320 kbps Vi$itReal 2.27 GB
Западноевропейский фолк в lossless (Acoustic, Celtic Folk) [CD] Al Petteway - Midsummer Moon - 1995, FLAC (tracks+.cue), lossless Vi$itReal 270 MB
Западноевропейский фолк lossy (Acoustic, Celtic, Scottish Folk) Emily Smith - Дискография 2002-2016 (7 альбомов), MP3, 320 kbps RelizMAN 777 MB
Авторская песня lossless (Acoustic, Chanson, Neofolk, Vocal) [CD] Гавриил Лубнин - Дискография 3 CD - 2004-2007, FLAC (tracks+.cue), lossless RelizMAN 1.68 GB
Аудио (acoustic, dark-folk) [16/44] [RM] [restored] [declipped] Помни Имя Свое - Птицы - 2015, FLAC (tracks+.cue) Vi$itReal 188 MB
Фламенко и акустическая гитара lossless (Acoustic, Fingerstyle) [CD] Данис Щербаков - Вниз по реке - 2012, FLAC (tracks+.cue), lossless RelizMAN 245 MB
Фламенко и акустическая гитара lossy (Acoustic, Flamenco, Classical Guitar) Rodrigo y Gabriela - полная дискография - 9 CD - (2001 - 2014), MP3, 320 kbps Vi$itReal 983 MB
Display posts:    

Current time is: 22-Jul 08:29

All times are UTC + 3



You cannot post new topics in this forum
You cannot reply to topics in this forum
You cannot edit your posts in this forum
You cannot delete your posts in this forum
You cannot vote in polls in this forum
You cannot attach files in this forum
You can download files in this forum