Reply to topic
DL-List and Torrent activity [Update пиров]
Size:  2.51 GB   |    Registered:  1 year 3 months   |    Completed:  1 time
Seeders:  359  [  0 KB/s  ]   Leechers:  3  [  0 KB/s  ]  
 
     
 
 
Author Message

RelizMAN ®

11

Post 20-Apr-2018 11:45

[Quote]

Sibelius - Tapiola; En Saga; 8 Songs (Anne Sofie von Otter, Finnish Radio Symphony Orchestra, Hannu Lintu) - 2017
Формат записи/Источник записи: [SACD-R][OF]
Наличие водяных знаков: Нет
Год издания/переиздания диска: 2017
Жанр: Classical
Издатель (лейбл): Ondine
Продолжительность: 00:54:58
Наличие сканов в содержимом раздачи: Буклет PDF
Gramophone Magazine November 2017 Editor's Choice
Presto Recordings of the Year Finalist 2017
BBC Music Magazine January 2018 Orchestral Choice
Треклист:
1 Tapiola, Op. 112 : 18:14
2 En saga, Op. 9 : 18:40
3 6 Songs, Op. 88 (arr. A. Sallinen for voice and orchestra) : No. 2. De bägge rosorna (The Two Roses) 01:11
4 6 Songs, Op. 88 (arr. A. Sallinen for voice and orchestra) : No. 4. Sippan (The Primrose) 01:07
5 6 Songs, Op. 86 (arr. A. Sallinen for voice and orchestra) (text by C. Snoilsky) : No. 3. Dold förening (Hidden Union) 01:05
6 7 Songs, Op. 13 (arr. A. Sallinen for voice and orchestra) : No. 1. Under strandens granar ('Neath the Fir Trees) 05:40
7 7 Songs, Op. 13 (arr. A. Sallinen for voice and orchestra) : No. 2. Kyssens hopp (Kiss's Hope) 02:14
8 6 Songs, Op. 90 (arr. A. Sallien for voice and orchestra) : No. 2. Hennes budskap (Her Message) Sallinen 01:31
9 6 Songs, Op. 36 (arr. A. Sallinen for voice and orchestra) (text by J.L. Runeberg) : No. 2. Men min fågel märks dock icke (But my bird is nowhere to be seen) 02:35
10 7 Songs, Op. 13 (arr. A. Sallinen for voice and orchestra) : No. 7. Jägargossen (The Young Sportsman)
Контейнер: ISO (*.iso)
Тип рипа: image
Разрядность: 64(2,8 MHz/1 Bit)
Формат: DST64
Количество каналов: 5.1 + 2

BackCover

Лог проверки качества

foobar2000 1.3.17 / Dynamic Range Meter 1.1.1log date: 2018-04-16 16:17:58
--------------------------------------------------------------------------------Analyzed: Anne Sofie von Otter, Finnish Radio Symphony Orchestra, Hannu Lintu / Sibelius: Tapiola, En Saga & 8 Songs--------------------------------------------------------------------------------
DR Peak RMS Duration Track--------------------------------------------------------------------------------DR18 -6.32 dB -32.40 dB 18:15 01-Tapiola, Op. 112DR17 -6.45 dB -31.51 dB 18:40 02-En Saga, Op. 9DR14 -17.50 dB -40.37 dB 1:11 03-8 Songs (orch. Sallinen): 1. De b?ge rosorna, Op. 88 No.2DR12 -16.76 dB -37.83 dB 1:08 04-8 Songs (orch. Sallinen): 2. Sippan, Op. 88 No.4DR13 -18.75 dB -40.32 dB 1:06 05-8 Songs (orch. Sallinen): 3. Dold f?ening, Op. 86 No.3DR16 -8.39 dB -33.98 dB 5:40 06-8 Songs (orch. Sallinen): 4. Under strandens granar, Op. 13 No.1DR14 -16.02 dB -39.62 dB 2:14 07-8 Songs (orch. Sallinen): 5. Kyssens hopp, Op. 13 No.2DR15 -9.83 dB -35.05 dB 1:31 08-8 Songs (orch. Sallinen): 6. Hennes budskap, Op. 90 No.2DR12 -10.91 dB -32.93 dB 2:35 09-8 Songs (orch. Sallinen): 7. Men min fogel m?ks dock icke, Op. 36 No.2DR14 -11.07 dB -33.90 dB 2:42 10-8 Songs (orch. Sallinen): 8. J?argossen, Op. 13 No.7--------------------------------------------------------------------------------
Number of tracks: 10Official DR value: DR14
Samplerate: 2822400 Hz / PCM Samplerate: 44100 HzChannels: 5Bits per sample: 1Bitrate: 14112 kbpsCodec: DST64================================================================================
--------------------------------------------------------------------------------Analyzed: Anne Sofie von Otter, Finnish Radio Symphony Orchestra, Hannu Lintu / Sibelius: Tapiola, En Saga & 8 Songs--------------------------------------------------------------------------------
DR Peak RMS Duration Track--------------------------------------------------------------------------------DR13 -6.49 dB -25.79 dB 18:15 01-Tapiola, Op. 112DR16 -6.37 dB -28.60 dB 18:40 02-En Saga, Op. 9DR15 -14.27 dB -34.87 dB 1:11 03-8 Songs (orch. Sallinen): 1. De b?ge rosorna, Op. 88 No.2DR13 -13.50 dB -32.30 dB 1:08 04-8 Songs (orch. Sallinen): 2. Sippan, Op. 88 No.4DR12 -16.51 dB -34.84 dB 1:06 05-8 Songs (orch. Sallinen): 3. Dold f?ening, Op. 86 No.3DR15 -6.59 dB -28.57 dB 5:40 06-8 Songs (orch. Sallinen): 4. Under strandens granar, Op. 13 No.1DR12 -11.98 dB -33.06 dB 2:14 07-8 Songs (orch. Sallinen): 5. Kyssens hopp, Op. 13 No.2DR15 -6.76 dB -28.84 dB 1:31 08-8 Songs (orch. Sallinen): 6. Hennes budskap, Op. 90 No.2DR13 -8.41 dB -27.61 dB 2:35 09-8 Songs (orch. Sallinen): 7. Men min fogel m?ks dock icke, Op. 36 No.2DR14 -7.32 dB -28.51 dB 2:42 10-8 Songs (orch. Sallinen): 8. J?argossen, Op. 13 No.7--------------------------------------------------------------------------------
Number of tracks: 10Official DR value: DR14
Samplerate: 2822400 Hz / PCM Samplerate: 44100 HzChannels: 2Bits per sample: 1Bitrate: 5645 kbpsCodec: DST64================================================================================
Доп. информация: https://www.prestoclassical.co.uk/classical/products/8363151--sibelius-tapiola-en-saga-8-songs
Источник (релизер): SACD Ripped via BDP-80FD
Оркестр: Finnish Radio Symphony Orchestra
Композитор: Jean Sibelius
Дирижер: Hannu Lintu

Об исполнителе (группе)

Anne Sofie von Otter (mezzo)
[doutdess.info].t262422.torrent
Torrent: Registered [ 2018-04-20 11:45 ] · 3C6DA0AFAE58FD3D92A942F5896E3CFCC8AF0833

26 KB

Status: checked
Completed: 1 times
Size: 2.51 GB
[SACD-R][OF] Sibelius - Tapiola; En Saga; 8 Songs (Anne Sofie von Otter, Finnish Radio Symphony Orchestra, Hannu Lintu) - 2017 (Classical) скачать торрент бесплатно и без регистрации

[Profile] [PM]
Forum Topic Author Size
Hi-Res stereo классика и классика в современной обработке [SACD-R][OF] (Andre) André Cluytens, Orchestre de la Société des Concerts du Concervatoire - Georges Bizet: L\'Arlésienne Suites Nos. 1 & 2, Carmen Suite - 1965/2011... Vi$itReal 1.84 GB
Hi-Res stereo классика и классика в современной обработке [SACD-R][OF] (Classical, Double Bass, Organ) Gary Karr - Adagio D\'Albinoni - 2014 (Beethoven, Franck, Handel, J.S. Bach) - 2014 Vi$itReal 1.64 GB
Многоканальная музыка классика и классика в современной обработке [SACD-R][OF] (Parkanyi Quartet) Párkányi Quartet - Claude Debussy & Maurice Ravel: String Quartets - 2004 (Classical; Chamber; Strings) RelizMAN 2.92 GB
Многоканальная музыка классика и классика в современной обработке [SACD-R][OF] (Prazak) Pražák Quartet - Дмитрий Шостакович / Dmitri Shostakovich: String Quartets No. 14 & 15 - 2014 (Classical; Chamber; Strings) RelizMAN 3.88 GB
Многоканальная музыка классика и классика в современной обработке [SACD-R][OF] Alan Civil, Sir Neville Marriner, Academy St. Martin in The Fields - Mozart: The 4 Horn Concertos - 1972/2002 (Orchestral, Horn) RelizMAN 3.22 GB
Hi-Res stereo классика и классика в современной обработке [SACD-R][OF] Alban Berg & Bela Bartok – Violin Concertos (Isaac Stern, New York Philharmonic, Leonard Bernstein) - 2013 (Classical/Orchestral/Violin) Vi$itReal 1.09 GB
Hi-Res stereo классика и классика в современной обработке [SACD-R][OF] Alban Berg Quartett - Haydn: Emperor Quartet, Mozart: Hunt Quartet - 2014 (Classical; Chamber) Vi$itReal 2.13 GB
Многоканальная музыка классика и классика в современной обработке [SACD-R][OF] Alexei & Michael Utkins / Алексей и Михаил Уткины, Hermitage Chamber Orchestra / Камерный Оркестр "Эрмитаж" - Dimitry Shostakovich: Preludes & Ballet Suites - 2006... RelizMAN 3.32 GB
Display posts:    

Current time is: 22-Jul 09:07

All times are UTC + 3



You cannot post new topics in this forum
You cannot reply to topics in this forum
You cannot edit your posts in this forum
You cannot delete your posts in this forum
You cannot vote in polls in this forum
You cannot attach files in this forum
You can download files in this forum