Reply to topic
DL-List and Torrent activity [Update пиров]
Size:  2.91 GB   |    Registered:  1 year 3 months   |    Completed:  1 time
Seeders:  370  [  0 KB/s  ]   Leechers:  13  [  0 KB/s  ]  
 
     
 
 
Author Message

RelizMAN ®

11

Post 19-Apr-2018 16:15

[Quote]

Steven Isserlis, Connie Shih - The Cello in Wartime
Формат записи/Источник записи: [SACD-R][OF]
Наличие водяных знаков: Нет
Год издания/переиздания диска: 2017
Жанр: Classical
Издатель (лейбл): BIS
Продолжительность: 01:05:38
Наличие сканов в содержимом раздачи: Буклет PDF
Треклист:
1. Debussy - Cello Sonata in D Minor, L. 135: I. Prologue 4:12
2. Debussy - Cello Sonata in D Minor, L. 135: II. Serenade 2:59
3. Debussy - Cello Sonata in D Minor, L. 135: III. Finale 3:31
4. Bridge - Cello Sonata: I. Allegro ben moderato 10:42 Album Only
5. Bridge - Cello Sonata: II. Adagio ma non troppo - Molto allegro e agitato 12:39
6. Fauré - Cello Sonata No. 1 in D Minor, Op. 109: I. Allegro 5:31
7. Fauré - Cello Sonata No. 1 in D Minor, Op. 109: II. Andante 7:05
8. Fauré - Cello Sonata No. 1 in D Minor, Op. 109: III. Finale. Allegro comodo 6:06
9. Webern - 3 Kleine Stücke, Op. 11: No. 1, Mäßige Achtel 1:03
10. Webern - 3 Kleine Stücke, Op. 11: No. 2, Sehr bewegt 0:22
11. Webern - 3 Kleine Stücke, Op. 11: No. 3, Äußerst ruhig 1:38
12. Saint-Saëns - Carnival Of The Animals, R. 125: XIII. Le Cygne (Version For Cello & Piano) 3:43
13. Parry - Jerusalem (Arr. for Cello & Piano) 2:21
14. Novello - Keep the Home Fires Burning (Arr. for Cello & Piano) 2:10
15. God Save the King (Arr. for Cello & Piano) 1:29
Steven Isserlis (cello)
Connie Shih (piano)
Контейнер: ISO (*.iso)
Тип рипа: image
Разрядность: 64(2,8 MHz/1 Bit)
Формат: DST64
Количество каналов: 5.1 + 2

BackCover

Лог проверки качества

foobar2000 1.3.17 / Dynamic Range Meter 1.1.1log date: 2018-04-12 18:55:37
--------------------------------------------------------------------------------Analyzed: Steven Isserlis & Connie Shih / The Cello in Wartime--------------------------------------------------------------------------------
DR Peak RMS Duration Track--------------------------------------------------------------------------------DR14 -9.89 dB -34.15 dB 4:12 01-Sonata, L.144: I. PrologueDR16 -10.33 dB -37.20 dB 2:59 02-II. SerenadeDR14 -6.74 dB -31.12 dB 3:31 03-III. FinaleDR14 -8.71 dB -30.81 dB 10:43 04-Sonata, H.125: I. Allegro ben moderatoDR14 -7.48 dB -31.56 dB 12:40 05-II. Adagio non troppo - Molto allegro agitatoDR13 -7.31 dB -31.19 dB 5:31 06-Sonata No.1, Op.109: I. AllegroDR12 -10.47 dB -32.31 dB 7:06 07-II. AndanteDR13 -8.97 dB -29.41 dB 6:07 08-III. FinalDR7 -17.10 dB -47.49 dB 1:04 09-Drei kleine St?ke, Op. 11: I. M癌ige achtelDR12 -6.45 dB -28.32 dB 0:22 10-II. Sehr bewegtDR11 -35.72 dB -56.41 dB 1:39 11-III. 훧?rst ruhigDR12 -19.74 dB -41.19 dB 3:43 12-The SwanDR12 -10.09 dB -30.86 dB 2:21 13-JerusalemDR12 -10.71 dB -31.28 dB 2:10 14-Keep the Home-Fires BurningDR12 -13.52 dB -34.94 dB 1:29 15-God Save the King--------------------------------------------------------------------------------
Number of tracks: 15Official DR value: DR12
Samplerate: 2822400 Hz / PCM Samplerate: 88200 HzChannels: 5Bits per sample: 1Bitrate: 14112 kbpsCodec: DST64================================================================================
--------------------------------------------------------------------------------Analyzed: Steven Isserlis & Connie Shih / The Cello in Wartime--------------------------------------------------------------------------------
DR Peak RMS Duration Track--------------------------------------------------------------------------------DR14 -9.75 dB -30.76 dB 4:12 01-Sonata, L.144: I. PrologueDR18 -9.92 dB -33.95 dB 2:59 02-II. SerenadeDR14 -6.62 dB -27.63 dB 3:31 03-III. FinaleDR14 -7.53 dB -26.93 dB 10:43 04-Sonata, H.125: I. Allegro ben moderatoDR15 -6.52 dB -27.62 dB 12:40 05-II. Adagio non troppo - Molto allegro agitatoDR14 -7.49 dB -27.67 dB 5:31 06-Sonata No.1, Op.109: I. AllegroDR12 -10.63 dB -28.83 dB 7:06 07-II. AndanteDR13 -8.68 dB -25.87 dB 6:07 08-III. FinalDR6 -17.26 dB -44.51 dB 1:04 09-Drei kleine St?ke, Op. 11: I. M癌ige achtelDR13 -6.36 dB -25.15 dB 0:22 10-II. Sehr bewegtDR11 -34.73 dB -53.10 dB 1:39 11-III. 훧?rst ruhigDR12 -19.28 dB -37.80 dB 3:43 12-The SwanDR12 -9.40 dB -26.72 dB 2:21 13-JerusalemDR12 -9.90 dB -27.16 dB 2:10 14-Keep the Home-Fires BurningDR13 -11.82 dB -30.79 dB 1:29 15-God Save the King--------------------------------------------------------------------------------
Number of tracks: 15Official DR value: DR13
Samplerate: 2822400 Hz / PCM Samplerate: 88200 HzChannels: 2Bits per sample: 1Bitrate: 5645 kbpsCodec: DST64================================================================================
Доп. информация:
https://www.amazon.co.uk/Wartime-pieces-played-trench-Isserlis/dp/B075VWW59V
http://i-classical.com/album.html?/the-cello-in-wartime-steven-isserlis/7318599923123
Источник (релизер): SACD Ripped via BDP-80FD
Композитор: Anton Webern , Camille Saint-Saëns, Claude Debussy, Frank Bridge, Gabriel Fauré, Ivor Novello, Hubert Parry
[doutdess.info].t262255.torrent
Torrent: Registered [ 2018-04-19 16:15 ] · 91FD48F21B97708826DE3EE08D77DCF7991CE56A

30 KB

Status: checked
Completed: 1 times
Size: 2.91 GB
[SACD-R][OF] Steven Isserlis, Connie Shih - The Cello in Wartime - 2017 (Classical) скачать торрент бесплатно и без регистрации

[Profile] [PM]
Forum Topic Author Size
Hi-Res stereo классика и классика в современной обработке [SACD-R][OF] (Andre) André Cluytens, Orchestre de la Société des Concerts du Concervatoire - Georges Bizet: L\'Arlésienne Suites Nos. 1 & 2, Carmen Suite - 1965/2011... Vi$itReal 1.84 GB
Hi-Res stereo классика и классика в современной обработке [SACD-R][OF] (Classical, Double Bass, Organ) Gary Karr - Adagio D\'Albinoni - 2014 (Beethoven, Franck, Handel, J.S. Bach) - 2014 Vi$itReal 1.64 GB
Многоканальная музыка классика и классика в современной обработке [SACD-R][OF] (Parkanyi Quartet) Párkányi Quartet - Claude Debussy & Maurice Ravel: String Quartets - 2004 (Classical; Chamber; Strings) RelizMAN 2.92 GB
Многоканальная музыка классика и классика в современной обработке [SACD-R][OF] (Prazak) Pražák Quartet - Дмитрий Шостакович / Dmitri Shostakovich: String Quartets No. 14 & 15 - 2014 (Classical; Chamber; Strings) RelizMAN 3.88 GB
Многоканальная музыка классика и классика в современной обработке [SACD-R][OF] Alan Civil, Sir Neville Marriner, Academy St. Martin in The Fields - Mozart: The 4 Horn Concertos - 1972/2002 (Orchestral, Horn) RelizMAN 3.22 GB
Hi-Res stereo классика и классика в современной обработке [SACD-R][OF] Alban Berg & Bela Bartok – Violin Concertos (Isaac Stern, New York Philharmonic, Leonard Bernstein) - 2013 (Classical/Orchestral/Violin) Vi$itReal 1.09 GB
Hi-Res stereo классика и классика в современной обработке [SACD-R][OF] Alban Berg Quartett - Haydn: Emperor Quartet, Mozart: Hunt Quartet - 2014 (Classical; Chamber) Vi$itReal 2.13 GB
Многоканальная музыка классика и классика в современной обработке [SACD-R][OF] Alexei & Michael Utkins / Алексей и Михаил Уткины, Hermitage Chamber Orchestra / Камерный Оркестр "Эрмитаж" - Dimitry Shostakovich: Preludes & Ballet Suites - 2006... RelizMAN 3.32 GB
Display posts:    

Current time is: 22-Jul 08:18

All times are UTC + 3



You cannot post new topics in this forum
You cannot reply to topics in this forum
You cannot edit your posts in this forum
You cannot delete your posts in this forum
You cannot vote in polls in this forum
You cannot attach files in this forum
You can download files in this forum