Reply to topic
DL-List and Torrent activity [Update пиров]
Size:  315 MB   |    Registered:  3 years 8 months   |    Completed:  1 time
Seeders:  502  [  0 KB/s  ]   Leechers:  54  [  0 KB/s  ]  
 
     
 
 
Author Message

RelizMAN ®

11

Post 05-Oct-2015 14:30

[Quote]

Tierra Negra - Memory Lane - 2012, FLAC (tracks+.cue), lossless
Жанр: New Flamenco
Носитель: CD
Страна-производитель диска (релиза): Германия
Год издания: 2012
Страна исполнителя (группы): Германия
Аудиокодек: FLAC (*.flac)
Тип рипа: tracks+.cue
Битрейт аудио: lossless
Продолжительность: 00:50:48
Источник (релизер): CD
Наличие сканов в содержимом раздачи: нет
Треклист:
01. "Alligator Alley" (3:57)
02. "Luna Blue" (4:20)
03. "Je t'aime" (3:19)
04. "La Parranda" (3:12)
05. "Fly like an Eagle" (2:51)
06. "Sintia" (3:16)
07. "Prophecy" (3:50)
08. "Bac du Sauvage" (3:09)
09. "Rue des flamants" (2:51)
10. "Bamboleo" (3:09)
11. "Babylon Rockers" (4:29)
12. "Bolero" (3:58)
13. "Dream of the Octopus" (3:09)
14. "Billie Jean" (3:22)
15. "In the Night" (2:02)

Лог создания рипа

Exact Audio Copy V1.0 beta 6 from 9. April 2015
Отчёт EAC об извлечении, выполненном 28. мая 2015, 0:22
Tierra Negra / Memory Lane
Дисковод: TSSTcorpCD/DVDW SH-S203B Adapter: 1 ID: 0
Режим чтения : ДостоверностьИспользование точного потока : ДаОтключение кэша аудио : ДаИспользование указателей C2 : Нет
Коррекция смещения при чтении : 6Способность читать области Lead-in и Lead-out : НетЗаполнение пропущенных сэмплов тишиной : ДаУдаление блоков с тишиной в начале и конце : НетПри вычислениях CRC использовались нулевые сэмплы : ДаИнтерфейс : Встроенный Win32-интерфейс для Win NT/2000Обработка зазоров : Добавлено к предыдущему треку
Выходной формат : Пользовательский кодировщикВыбранный битрейт : 128 kBit/sКачество : ВысокийДобавление ID3-тега : НетУтилита сжатия : C:\Program Files (x86)\xrecode II\xrecode2.exeДополнительные параметры : -V -8 -T "Genre=%genre%" -T "Artist=%artist%" -T "Title=%title%" -T "Album=%albumtitle%" -T "Date=%year%" -T "Tracknumber=%tracknr%" -T "Comment=%comment%" %source%
TOC извлечённого CD
Трек | Старт | Длительность | Начальный сектор | Конечный сектор --------------------------------------------------------------------- 1 | 0:00.00 | 3:59.25 | 0 | 17949 2 | 3:59.25 | 4:22.25 | 17950 | 37624 3 | 8:21.50 | 3:21.03 | 37625 | 52702 4 | 11:42.53 | 3:13.56 | 52703 | 67233 5 | 14:56.34 | 2:52.71 | 67234 | 80204 6 | 17:49.30 | 3:17.64 | 80205 | 95043 7 | 21:07.19 | 3:52.31 | 95044 | 112474 8 | 24:59.50 | 3:11.36 | 112475 | 126835 9 | 28:11.11 | 2:53.41 | 126836 | 139851 10 | 31:04.52 | 3:11.24 | 139852 | 154200 11 | 34:16.01 | 4:31.47 | 154201 | 174572 12 | 38:47.48 | 4:00.31 | 174573 | 192603 13 | 42:48.04 | 3:11.18 | 192604 | 206946 14 | 45:59.22 | 3:23.59 | 206947 | 222230 15 | 49:23.06 | 2:02.03 | 222231 | 231383
Трек 1
Имя файла E:\Archive\Audio\EigeneProjekte\EAC\Tierra_Negra\01 Alligator Alley.wav
Длина предзазора 0:00:02.00
Пиковый уровень 98.9 % Скорость извлечения 4.4 X Качество трека 100.0 % CRC теста E68D504A CRC копии E68D504A Точное извлечение (достоверность 3) [A42DD1BC] (AR v2) Копирование... OK
Трек 2
Имя файла E:\Archive\Audio\EigeneProjekte\EAC\Tierra_Negra\02 Luna Blue.wav
Длина предзазора 0:00:02.00
Пиковый уровень 98.8 % Скорость извлечения 5.0 X Качество трека 100.0 % CRC теста A916C892 CRC копии A916C892 Точное извлечение (достоверность 3) [EDC1470C] (AR v2) Копирование... OK
Трек 3
Имя файла E:\Archive\Audio\EigeneProjekte\EAC\Tierra_Negra\03 Je t'aime.wav
Длина предзазора 0:00:02.00
Пиковый уровень 98.8 % Скорость извлечения 5.1 X Качество трека 100.0 % CRC теста 9EFAAB46 CRC копии 9EFAAB46 Точное извлечение (достоверность 3) [C4A7165C] (AR v2) Копирование... OK
Трек 4
Имя файла E:\Archive\Audio\EigeneProjekte\EAC\Tierra_Negra\04 La Parranda.wav
Длина предзазора 0:00:02.00
Пиковый уровень 98.9 % Скорость извлечения 5.4 X Качество трека 100.0 % CRC теста 97E847D8 CRC копии 97E847D8 Точное извлечение (достоверность 3) [EB448544] (AR v2) Копирование... OK
Трек 5
Имя файла E:\Archive\Audio\EigeneProjekte\EAC\Tierra_Negra\05 Fly like an Eagle.wav
Длина предзазора 0:00:02.00
Пиковый уровень 99.2 % Скорость извлечения 4.7 X Качество трека 99.9 % CRC теста 44B1403F CRC копии 44B1403F Точное извлечение (достоверность 3) [6D4495B6] (AR v2) Копирование... OK
Трек 6
Имя файла E:\Archive\Audio\EigeneProjekte\EAC\Tierra_Negra\06 Sintia.wav
Длина предзазора 0:00:02.00
Пиковый уровень 98.9 % Скорость извлечения 5.1 X Качество трека 99.9 % CRC теста 86BE9B2C CRC копии 86BE9B2C Точное извлечение (достоверность 3) [321FC6C4] (AR v2) Копирование... OK
Трек 7
Имя файла E:\Archive\Audio\EigeneProjekte\EAC\Tierra_Negra\07 Prophecy.wav
Длина предзазора 0:00:02.00
Пиковый уровень 98.7 % Скорость извлечения 5.6 X Качество трека 99.9 % CRC теста 61F8AC49 CRC копии 61F8AC49 Точное извлечение (достоверность 3) [A1C3234C] (AR v2) Копирование... OK
Трек 8
Имя файла E:\Archive\Audio\EigeneProjekte\EAC\Tierra_Negra\08 Bac du Sauvage.wav
Длина предзазора 0:00:02.00
Пиковый уровень 98.9 % Скорость извлечения 6.4 X Качество трека 100.0 % CRC теста 405F2F1A CRC копии 405F2F1A Точное извлечение (достоверность 3) [8712493D] (AR v2) Копирование... OK
Трек 9
Имя файла E:\Archive\Audio\EigeneProjekte\EAC\Tierra_Negra\09 Rue des flamants.wav
Длина предзазора 0:00:02.00
Пиковый уровень 98.9 % Скорость извлечения 6.5 X Качество трека 100.0 % CRC теста 0C3B0C3B CRC копии 0C3B0C3B Точное извлечение (достоверность 3) [0F87BEB3] (AR v2) Копирование... OK
Трек 10
Имя файла E:\Archive\Audio\EigeneProjekte\EAC\Tierra_Negra\10 Bamboleo.wav
Длина предзазора 0:00:02.00
Пиковый уровень 98.7 % Скорость извлечения 6.9 X Качество трека 100.0 % CRC теста E6A9A5E4 CRC копии E6A9A5E4 Точное извлечение (достоверность 3) [0B306662] (AR v2) Копирование... OK
Трек 11
Имя файла E:\Archive\Audio\EigeneProjekte\EAC\Tierra_Negra\11 Babylon Rockers.wav
Длина предзазора 0:00:02.00
Пиковый уровень 99.1 % Скорость извлечения 7.5 X Качество трека 100.0 % CRC теста FD9BEAF4 CRC копии FD9BEAF4 Точное извлечение (достоверность 3) [EAD8E272] (AR v2) Копирование... OK
Трек 12
Имя файла E:\Archive\Audio\EigeneProjekte\EAC\Tierra_Negra\12 Bolero.wav
Длина предзазора 0:00:02.00
Пиковый уровень 98.7 % Скорость извлечения 7.6 X Качество трека 100.0 % CRC теста 47BAEF10 CRC копии 47BAEF10 Точное извлечение (достоверность 3) [B4E0BE4E] (AR v2) Копирование... OK
Трек 13
Имя файла E:\Archive\Audio\EigeneProjekte\EAC\Tierra_Negra\13 Dream of the Octopus.wav
Длина предзазора 0:00:02.00
Пиковый уровень 99.3 % Скорость извлечения 6.5 X Качество трека 99.9 % CRC теста 3310EB50 CRC копии 3310EB50 Точное извлечение (достоверность 3) [24B24F11] (AR v2) Копирование... OK
Трек 14
Имя файла E:\Archive\Audio\EigeneProjekte\EAC\Tierra_Negra\14 Billie Jean.wav
Длина предзазора 0:00:02.00
Пиковый уровень 98.7 % Скорость извлечения 7.9 X Качество трека 100.0 % CRC теста D7E93E0E CRC копии D7E93E0E Точное извлечение (достоверность 3) [71E8162E] (AR v2) Копирование... OK
Трек 15
Имя файла E:\Archive\Audio\EigeneProjekte\EAC\Tierra_Negra\15 In the Night.wav
Длина предзазора 0:00:02.00
Пиковый уровень 98.6 % Скорость извлечения 7.2 X Качество трека 100.0 % CRC теста A566CB80 CRC копии A566CB80 Точное извлечение (достоверность 3) [C537D751] (AR v2) Копирование... OK
Все треки извлечены точно
Ошибок не произошло
Конец отчёта
==== Контрольная сумма отчёта 0E83D4413826A79A5442A1C7CC7CDAC35D99AD143C8B485D37B55DCED056A83B ====
------------------------------------------------------------

Содержание индексной карты (.CUE)

REM DISCID D20C0D0FREM COMMENT "ExactAudioCopy v1.0b6"PERFORMER "Tierra Negra"TITLE "Memory Lane"FILE "01 Alligator Alley.wav" WAVE TRACK 01 AUDIO TITLE "Alligator Alley" PERFORMER "Tierra Negra" INDEX 01 00:00:00 TRACK 02 AUDIO TITLE "Luna Blue" PERFORMER "Tierra Negra" INDEX 00 03:57:25FILE "02 Luna Blue.wav" WAVE INDEX 01 00:00:00 TRACK 03 AUDIO TITLE "Je t'aime" PERFORMER "Tierra Negra" INDEX 00 04:20:25FILE "03 Je t'aime.wav" WAVE INDEX 01 00:00:00 TRACK 04 AUDIO TITLE "La Parranda" PERFORMER "Tierra Negra" INDEX 00 03:19:03FILE "04 La Parranda.wav" WAVE INDEX 01 00:00:00 TRACK 05 AUDIO TITLE "Fly like an Eagle" PERFORMER "Tierra Negra" INDEX 00 03:11:56FILE "05 Fly like an Eagle.wav" WAVE INDEX 01 00:00:00 TRACK 06 AUDIO TITLE "Sintia" PERFORMER "Tierra Negra" INDEX 00 02:50:71FILE "06 Sintia.wav" WAVE INDEX 01 00:00:00 TRACK 07 AUDIO TITLE "Prophecy" PERFORMER "Tierra Negra" INDEX 00 03:15:64FILE "07 Prophecy.wav" WAVE INDEX 01 00:00:00 TRACK 08 AUDIO TITLE "Bac du Sauvage" PERFORMER "Tierra Negra" INDEX 00 03:50:31FILE "08 Bac du Sauvage.wav" WAVE INDEX 01 00:00:00 TRACK 09 AUDIO TITLE "Rue des flamants" PERFORMER "Tierra Negra" INDEX 00 03:09:36FILE "09 Rue des flamants.wav" WAVE INDEX 01 00:00:00 TRACK 10 AUDIO TITLE "Bamboleo" PERFORMER "Tierra Negra" INDEX 00 02:51:41FILE "10 Bamboleo.wav" WAVE INDEX 01 00:00:00 TRACK 11 AUDIO TITLE "Babylon Rockers" PERFORMER "Tierra Negra" INDEX 00 03:09:24FILE "11 Babylon Rockers.wav" WAVE INDEX 01 00:00:00 TRACK 12 AUDIO TITLE "Bolero" PERFORMER "Tierra Negra" INDEX 00 04:29:47FILE "12 Bolero.wav" WAVE INDEX 01 00:00:00 TRACK 13 AUDIO TITLE "Dream of the Octopus" PERFORMER "Tierra Negra" INDEX 00 03:58:31FILE "13 Dream of the Octopus.wav" WAVE INDEX 01 00:00:00 TRACK 14 AUDIO TITLE "Billie Jean" PERFORMER "Tierra Negra" INDEX 00 03:09:18FILE "14 Billie Jean.wav" WAVE INDEX 01 00:00:00 TRACK 15 AUDIO TITLE "In the Night" PERFORMER "Tierra Negra" INDEX 00 03:21:59FILE "15 In the Night.wav" WAVE INDEX 01 00:00:00

Об исполнителе (группе)

Немногие сегодня композиторы умеют писать ярко выраженные мелодии. Группа Тьера Негра однако имеет к этому незаурядный талант.

Об альбоме (сборнике)

В альбом "Лабиринт памяти" вошли ранее не издаваемые композиции.

Состав

Raughi Ebert, Leo Henrichs -guitars
Helmuth Fass - bass
Felipe Rengifo Hernandez jr. - percussion
Raughi Ebert, Minerva Diaz Perez - vokals

[doutdess.info].t81190.torrent
Torrent: Registered [ 2015-10-05 14:30 ] · 9651B98F81EBE3002BF56AC0772A5A5F0DB2AF8D

14 KB

Status: checked
Completed: 1 times
Size: 315 MB
(New Flamenco) Tierra Negra - Memory Lane - 2012, FLAC (tracks+.cue), lossless скачать торрент бесплатно и без регистрации

[Profile] [PM]
Forum Topic Author Size
Фламенко и акустическая гитара lossy (New Flamenco) Armik - La Vida - 2015, MP3, 320 kbps Vi$itReal 111 MB
Фламенко и акустическая гитара lossy (New Flamenco) El Kado - Full Discography 4 CD - 2002–2011, MP3, 192–320 kbps Vi$itReal 272 MB
Фламенко и акустическая гитара lossy (New Flamenco) Robert Michaels - Via Italia - 2013, MP3, 320 kbps Vi$itReal 99 MB
Фламенко и акустическая гитара lossless (New Flamenco) VA - Flamenco: A Windham Hill Guitar Collection - 2002, FLAC (tracks+.cue), lossless RelizMAN 293 MB
Фламенко и акустическая гитара lossless (New Flamenco, Jazz, WorldMusic) Armik - Дискография (30 CD) - 1994-2017, FLAC/WV (image+cue), lossless RelizMAN 11.21 GB
Фламенко и акустическая гитара lossy (New Flamenco, Latino, Pop) Nocy - Full Discography 16 CD - 1997-2016, MP3, 192-320 kbps Vi$itReal 1.27 GB
Display posts:    

Current time is: 27-Jun 16:18

All times are UTC + 3



You cannot post new topics in this forum
You cannot reply to topics in this forum
You cannot edit your posts in this forum
You cannot delete your posts in this forum
You cannot vote in polls in this forum
You cannot attach files in this forum
You can download files in this forum