Ответить на тему
Статистика раздачи [Обновить пиров]
Размер:  957 MB   |    Зарегистрирован:  7 месяцев 7 дней   |    Скачан:  0 раз
Сидов:  315  [  0 KB/s  ]   Личеров:  36  [  0 KB/s  ]  
 
     
 
 
Автор Сообщение

Vi$itReal ®

12

Создавать темы 10-Авг-2018 00:10

[Цитировать]


Tommy Kotter

Kotter: Poem



Формат записи | Источник записи: [TR24][OF]
Наличие водяных знаков: Нет
Страна исполнителя: Sweden
Год издания релиза: 2018
Жанр: Classical
Издатель (лейбл): Nilento Recordst ®
Продолжительность: 00:58:14
Источник: flackmusic
WEB релиз: HDtracks
Контейнер: FLAC (*.flac)
Тип рипа: tracks
Разрядность: 24/96
Формат: WAV (flac.ape.wv)
Количество каналов: 2.0
Наличие сканов: front

01 - Visa vid midsommartid (Arr. for Piano) (00:03:11)
02 - Summerpoem (00:02:33)
03 - La mer (Arr. for Piano) (00:07:15)
04 - Heartland (00:02:36)
05 - Speldosan (00:04:03)
06 - Autumnpoem (00:02:38)
07 - Skyddsangel (00:06:28)
08 - Ljuset fran Krubban (00:03:08)
09 - Winterpoem (00:06:06)
10 - Tulpaner fran Amsterdam (Arr. for Piano) (00:04:06)
11 - Springpoem (00:03:42)
12 - Cherry Blossom (00:07:52)
13 - Mori Song (Haru ga Kita) (00:04:30)
-

• Замер динамического диапазона •

foobar2000 1.3.7 / Dynamic Range Meter 1.1.1log date: 2018-08-06 14:37:20
--------------------------------------------------------------------------------Analyzed: Tommy Kotter / Kotter: Poem--------------------------------------------------------------------------------
DR Peak RMS Duration Track--------------------------------------------------------------------------------DR13 -2.65 dB -19.82 dB 3:11 01-Visa vid midsommartid (Arr. for Piano)DR13 -1.04 dB -18.03 dB 2:34 02-SummerpoemDR14 -1.04 dB -18.94 dB 7:16 03-La mer (Arr. for Piano)DR12 -1.04 dB -16.46 dB 2:36 04-HeartlandDR13 -1.04 dB -18.32 dB 4:04 05-SpeldosanDR14 -1.76 dB -19.49 dB 2:39 06-AutumnpoemDR14 -1.62 dB -18.55 dB 6:28 07-SkyddsangelDR14 -2.32 dB -21.08 dB 3:09 08-Ljuset fran KrubbanDR14 -1.36 dB -19.99 dB 6:06 09-WinterpoemDR10 -1.04 dB -14.42 dB 4:06 10-Tulpaner fran Amsterdam (Arr. for Piano)DR14 -2.42 dB -21.89 dB 3:43 11-SpringpoemDR13 -1.04 dB -17.72 dB 7:53 12-Cherry BlossomDR10 -1.04 dB -14.84 dB 4:31 13-Mori Song (Haru ga Kita)--------------------------------------------------------------------------------
Number of tracks: 13Official DR value: DR13
Samplerate: 96000 HzChannels: 2Bits per sample: 24Bitrate: 2385 kbpsCodec: FLAC================================================================================
-

• Скриншот спектра частот •

-

[doutdess.info].t283375.torrent
Торрент: Зарегистрирован [ 2018-08-10 00:10 ] · 8415B30B09715CFC9BA3CF1A9F468281DE5D98F0

20 KB

Статус: проверено
Скачан: 0 раз
Размер: 957 MB
[TR24][OF] Tommy Kotter - Kotter: Poem - 2018 (Classical) скачать торрент бесплатно и без регистрации

[Профиль] [ЛС]
Форум Тема Автор Размер
Классика в современной обработке, Classical Crossover lossy и lossless [TR24][OF] (Hi-Res)Marion Treupel-Franck - Voice of the Soul - Flute Music by Jean Daniel Braun - 2017, FLAC (tracks) lossless, (Classical, Baroque Era) Vi$itReal 678 MB
Этническая музыка Индии lossless [TR24][OF] (Indian Classical, Sitar, World Music) [WEB] Anoushka Shankar - Home - 2015, FLAC (tracks), lossless RelizMAN 598 MB
Саундтреки к играм lossless [TR24][OF] (Score) [WEB] Sudden Strike 4 (Original Game Soundtrack) (by Peter Antovszki) - 2017, FLAC (tracks), lossless RelizMAN 424 MB
Hi-Res stereo и Многоканальная музыка Саундтреки [TR24][OF] 2Cellos - Score - 2017 (Symphonic Rock) RelizMAN 608 MB
Hi-Res stereo классика и классика в современной обработке [TR24][OF] A French Baroque Diva: Arias for Marie Fel by Rameau, Lacoste, Lalande, Rousseau, Fiocco, Mondonville (Carolyn Sampson, Ex Cathedra & Jeffrey Skidmore) - 2014 (Baroque, Opera, Vocal,... Vi$itReal 1,37 GB
Hi-Res stereo классика и классика в современной обработке [TR24][OF] A Sousa Celebration - Royal Scottish National Orchestra, Kristjan Jarvi - 2017 (Classical) Vi$itReal 1,21 GB
Hi-Res stereo классика и классика в современной обработке [TR24][OF] A Vaughan Williams Christmas - Chapel Choir Of The Royal Hospital Chelsea, William Vann - 2018 (Classical) Vi$itReal 1,18 GB
Hi-Res stereo классика и классика в современной обработке [TR24][OF] A. Vivaldi: Dorilla in Tempe, RV 709 (Romina Basso, Serena Malfi, Marina de Liso, Lucia Cirillo, Sonia Prina|Coro della Radiotelevisione Svizzera I Barocchisti, Diego Fasolis) - 2017... Vi$itReal 2,88 GB
Показать сообщения:    

Текущее время: 18-Мар 21:14

Часовой пояс: UTC + 3



Вы не можете начинать темы
Вы не можете отвечать на сообщения
Вы не можете редактировать свои сообщения
Вы не можете удалять свои сообщения
Вы не можете голосовать в опросах
Вы не можете прикреплять файлы к сообщениям
Вы можете скачивать файлы