Reply to topic
DL-List and Torrent activity [Update пиров]
Size:  654 MB   |    Registered:  3 years 8 months   |    Completed:  1 time
Seeders:  851  [  0 KB/s  ]   Leechers:  44  [  0 KB/s  ]  
 
     
 
 
Author Message

RelizMAN ®

11

Post 05-Oct-2015 00:31

[Quote]

Two Steps From Hell - Battlecry (2CD)
Жанр: New Age, Classical, Orchestral
Год издания: 2015
Издатель (лейбл): Two Steps from Hel
Номер по каталогу: 889211509362
Страна исполнителя (группы): US
Аудиокодек: FLAC (*.flac)
Тип рипа: tracks+.cue
Битрейт аудио: lossless
Продолжительность: 01:37:50
Источник (релизер): WRZMusic (error404)
Наличие сканов в содержимом раздачи: нет
http://www.twostepsfromhell.com/
https://www.cdbaby.com/cd/twostepsfromhell110
http://www.youtube.com/user/TwoStepsFromTheMusic
Треклист:

CD 1 [00:39:29]

01. None Shall Live [2:22]
02. Stormkeeper [2:58]
03. Victory [5:23]
04. Wolf King [4:17]
05. Rise Above [3:45]
06. Spellcaster [3:04]
07. Never Back Down [2:58]
08. Red Tower [3:11]
09. Cannon in D Minor [3:06]
10. Blackout [3:48]
11. Stronger Faster Braver [4:39]

Лог создания рипа

Exact Audio Copy V1.0 beta 3 from 29. August 2011
EAC extraction logfile from 28. July 2015, 23:00
Two Steps From Hell / Battlecry
Used drive : hp DVD A DS8A8SH Adapter: 0 ID: 1
Read mode : SecureUtilize accurate stream : YesDefeat audio cache : YesMake use of C2 pointers : No
Read offset correction : 6Overread into Lead-In and Lead-Out : NoFill up missing offset samples with silence : YesDelete leading and trailing silent blocks : NoNull samples used in CRC calculations : YesUsed interface : Native Win32 interface for Win NT & 2000Gap handling : Appended to previous track
Used output format : User Defined EncoderSelected bitrate : 1024 kBit/sQuality : HighAdd ID3 tag : NoCommand line compressor : C:\Program Files (x86)\Exact Audio Copy\Flac\flac.exeAdditional command line options : -8 -V -T "ARTIST=%artist%" -T "TITLE=%title%" -T "ALBUM=%albumtitle%" -T "DATE=%year%" -T "TRACKNUMBER=%tracknr%" -T "GENRE=%genre%" -T "PERFORMER=%albuminterpret%" -T "COMPOSER=%composer%" %haslyrics%--tag-from-file=LYRICS="%lyricsfile%"%haslyrics% -T "ALBUMARTIST=%albumartist%" -T "DISCNUMBER=%cdnumber%" -T "TOTALDISCS=%totalcds%" -T "TOTALTRACKS=%numtracks%" -T "COMMENT=%comment%" %source% -o %dest%
TOC of the extracted CD
Track | Start | Length | Start sector | End sector --------------------------------------------------------- 1 | 0:00.00 | 2:22.08 | 0 | 10657 2 | 2:22.08 | 2:57.45 | 10658 | 23977 3 | 5:19.53 | 5:22.45 | 23978 | 48172 4 | 10:42.23 | 4:16.71 | 48173 | 67443 5 | 14:59.19 | 3:44.70 | 67444 | 84313 6 | 18:44.14 | 3:03.62 | 84314 | 98100 7 | 21:48.01 | 2:57.54 | 98101 | 111429 8 | 24:45.55 | 3:11.05 | 111430 | 125759 9 | 27:56.60 | 3:05.74 | 125760 | 139708 10 | 31:02.59 | 3:47.61 | 139709 | 156794 11 | 34:50.45 | 4:38.45 | 156795 | 177689
Track 1
Filename C:\EAC Rips\Two Steps From Hell - Battlecry (2015) [FLAC]\Disc 1\01 - None Shall Live.wav
Pre-gap length 0:00:02.00
Peak level 98.8 % Extraction speed 0.5 X Track quality 99.9 % Test CRC F38802C9 Copy CRC F38802C9 Accurately ripped (confidence 2) [E49BE51A] (AR v2) Copy OK
Track 2
Filename C:\EAC Rips\Two Steps From Hell - Battlecry (2015) [FLAC]\Disc 1\02 - Stormkeeper.wav
Pre-gap length 0:00:05.72
Peak level 98.8 % Extraction speed 1.0 X Track quality 99.9 % Test CRC 2FC74FC8 Copy CRC 2FC74FC8 Accurately ripped (confidence 2) [DD292AAD] (AR v2) Copy OK
Track 3
Filename C:\EAC Rips\Two Steps From Hell - Battlecry (2015) [FLAC]\Disc 1\03 - Victory.wav
Pre-gap length 0:00:05.72
Peak level 98.8 % Extraction speed 1.4 X Track quality 100.0 % Test CRC 94649AD5 Copy CRC 94649AD5 Accurately ripped (confidence 2) [ED0E427F] (AR v2) Copy OK
Track 4
Filename C:\EAC Rips\Two Steps From Hell - Battlecry (2015) [FLAC]\Disc 1\04 - Wolf King.wav
Pre-gap length 0:00:05.72
Peak level 98.7 % Extraction speed 1.3 X Track quality 99.9 % Test CRC BC5CB6AC Copy CRC BC5CB6AC Accurately ripped (confidence 2) [9D5CB780] (AR v2) Copy OK
Track 5
Filename C:\EAC Rips\Two Steps From Hell - Battlecry (2015) [FLAC]\Disc 1\05 - Rise Above.wav
Pre-gap length 0:00:05.72
Peak level 98.8 % Extraction speed 1.6 X Track quality 100.0 % Test CRC 51D49271 Copy CRC 51D49271 Accurately ripped (confidence 2) [5103C90C] (AR v2) Copy OK
Track 6
Filename C:\EAC Rips\Two Steps From Hell - Battlecry (2015) [FLAC]\Disc 1\06 - Spellcaster.wav
Pre-gap length 0:00:05.72
Peak level 98.8 % Extraction speed 1.6 X Track quality 100.0 % Test CRC 8D84A85D Copy CRC 8D84A85D Accurately ripped (confidence 2) [AA6DE756] (AR v2) Copy OK
Track 7
Filename C:\EAC Rips\Two Steps From Hell - Battlecry (2015) [FLAC]\Disc 1\07 - Never Back Down.wav
Pre-gap length 0:00:05.72
Peak level 98.8 % Extraction speed 1.7 X Track quality 100.0 % Test CRC 7F9A6F16 Copy CRC 7F9A6F16 Accurately ripped (confidence 2) [9598671E] (AR v2) Copy OK
Track 8
Filename C:\EAC Rips\Two Steps From Hell - Battlecry (2015) [FLAC]\Disc 1\08 - Red Tower.wav
Pre-gap length 0:00:05.72
Peak level 98.8 % Extraction speed 1.7 X Track quality 100.0 % Test CRC 0125CCEA Copy CRC 0125CCEA Accurately ripped (confidence 2) [2F3E95C1] (AR v2) Copy OK
Track 9
Filename C:\EAC Rips\Two Steps From Hell - Battlecry (2015) [FLAC]\Disc 1\09 - Cannon in D Minor.wav
Pre-gap length 0:00:05.72
Peak level 98.8 % Extraction speed 1.8 X Track quality 100.0 % Test CRC 57911420 Copy CRC 57911420 Accurately ripped (confidence 2) [D8962B41] (AR v2) Copy OK
Track 10
Filename C:\EAC Rips\Two Steps From Hell - Battlecry (2015) [FLAC]\Disc 1\10 - Blackout.wav
Pre-gap length 0:00:05.72
Peak level 98.8 % Extraction speed 1.9 X Track quality 100.0 % Test CRC 49EB9065 Copy CRC 49EB9065 Accurately ripped (confidence 2) [82820D3E] (AR v2) Copy OK
Track 11
Filename C:\EAC Rips\Two Steps From Hell - Battlecry (2015) [FLAC]\Disc 1\11 - Stronger Faster Braver.wav
Pre-gap length 0:00:05.72
Peak level 98.8 % Extraction speed 2.0 X Track quality 100.0 % Test CRC 5D966A85 Copy CRC 5D966A85 Accurately ripped (confidence 2) [767A0C39] (AR v2) Copy OK
All tracks accurately ripped
No errors occurred
End of status report
---- CUETools DB Plugin V2.1.3
[CTDB TOCID: XUHY2xlVKq_WygGE0fTOhGUVAhA-] found, Submit result: XUHY2xlVKq_WygGE0fTOhGUVAhA- has been confirmed[fc0aad5d] (17/17) Accurately ripped
==== Log checksum A720F9880E5FA3968BDA01AB88DD67993AB54887F27477FC5832AA9154975FB8 ====

Содержание индексной карты (.CUE)

REM DATE 2015REM DISCID 8209410BREM COMMENT "ExactAudioCopy v1.0b3"PERFORMER "Two Steps From Hell"TITLE "Battlecry CD 1"FILE "01 - None Shall Live.wav" WAVE TRACK 01 AUDIO TITLE "None Shall Live" PERFORMER "Two Steps From Hell" ISRC US3DF1505722 INDEX 01 00:00:00 TRACK 02 AUDIO TITLE "Stormkeeper" PERFORMER "Two Steps From Hell" ISRC US3DF1505723 INDEX 00 02:16:29FILE "02 - Stormkeeper.wav" WAVE INDEX 01 00:00:00 TRACK 03 AUDIO TITLE "Victory" PERFORMER "Two Steps From Hell" ISRC US3DF1505725 INDEX 00 02:51:66FILE "03 - Victory.wav" WAVE INDEX 01 00:00:00 TRACK 04 AUDIO TITLE "Wolf King" PERFORMER "Two Steps From Hell" ISRC US3DF1505727 INDEX 00 05:16:66FILE "04 - Wolf King.wav" WAVE INDEX 01 00:00:00 TRACK 05 AUDIO TITLE "Rise Above" PERFORMER "Two Steps From Hell" ISRC US3DF1505728 INDEX 00 04:11:17FILE "05 - Rise Above.wav" WAVE INDEX 01 00:00:00 TRACK 06 AUDIO TITLE "Spellcaster" PERFORMER "Two Steps From Hell" ISRC US3DF1505729 INDEX 00 03:39:16FILE "06 - Spellcaster.wav" WAVE INDEX 01 00:00:00 TRACK 07 AUDIO TITLE "Never Back Down" PERFORMER "Two Steps From Hell" ISRC US3DF1505730 INDEX 00 02:58:08FILE "07 - Never Back Down.wav" WAVE INDEX 01 00:00:00 TRACK 08 AUDIO TITLE "Red Tower" PERFORMER "Two Steps From Hell" ISRC US3DF1505731 INDEX 00 02:52:00FILE "08 - Red Tower.wav" WAVE INDEX 01 00:00:00 TRACK 09 AUDIO TITLE "Cannon in D Minor" PERFORMER "Two Steps From Hell" ISRC US3DF1505732 INDEX 00 03:05:26FILE "09 - Cannon in D Minor.wav" WAVE INDEX 01 00:00:00 TRACK 10 AUDIO TITLE "Blackout" PERFORMER "Two Steps From Hell" ISRC US3DF1505733 INDEX 00 03:00:20FILE "10 - Blackout.wav" WAVE INDEX 01 00:00:00 TRACK 11 AUDIO TITLE "Stronger Faster Braver" PERFORMER "Two Steps From Hell" ISRC US3DF1505734 INDEX 00 03:42:07FILE "11 - Stronger Faster Braver.wav" WAVE INDEX 01 00:00:00

Лог проверки качества

-----------------------
DON'T MODIFY THIS FILE
-----------------------
PERFORMER: auCDtect Task Manager, ver. 1.5.1RC6 build 1.5.1.7Copyright (c) 2008-2010 y-soft. All rights reservedhttp://y-soft.org
ANALYZER: auCDtect: CD records authenticity detector, version 0.8.2Copyright (c) 2004 Oleg Berngardt. All rights reserved.Copyright (c) 2004 Alexander Djourik. All rights reserved.
FILE: 01 - None Shall Live.flac Size: 17897906 Hash: C94AE0DCFD084116201487022E235141 Accuracy: -m8 Conclusion: CDDA 100% Signature: 01D5D06911D4202E5C83A65C3B28710A726F9DB6FILE: 02 - Stormkeeper.flac Size: 20759535 Hash: 422CE2BBE335C08B802B4858A222362F Accuracy: -m8 Conclusion: CDDA 100% Signature: 19A296B8F8F1EF6670604FE37CB642C070572EDDFILE: 03 - Victory.flac Size: 38488193 Hash: 65C8CB5BA94E86025C180708026B03D9 Accuracy: -m8 Conclusion: CDDA 100% Signature: E0DC613CFA3B739B9C4810E62A2D861B7CE8402DFILE: 04 - Wolf King.flac Size: 28507267 Hash: 16DEFDF989D59733DF0ADFAF6ED5E3BA Accuracy: -m8 Conclusion: CDDA 100% Signature: 785749225CFE201A2438FDF9182E04D83A76191FFILE: 05 - Rise Above.flac Size: 24851174 Hash: 536C6A8F06C5FBBC1AC8402382BD30AD Accuracy: -m8 Conclusion: CDDA 100% Signature: 3A22E38CB107AB89587785453445E413A51F8071FILE: 06 - Spellcaster.flac Size: 23346754 Hash: 0F6D68C7F52456EA186E6DFCB23ECFFC Accuracy: -m8 Conclusion: CDDA 100% Signature: 152C54B50FF27F295C074CDDE311FAE2A0D0E912FILE: 07 - Never Back Down.flac Size: 20417459 Hash: 63609F9494F77A4D92D437F29726FED1 Accuracy: -m8 Conclusion: CDDA 100% Signature: 8F43381029A6A12406D954D4A607BD80876BC67EFILE: 08 - Red Tower.flac Size: 22350918 Hash: 1035152E5ACD25E9B667CDD1B716FA85 Accuracy: -m8 Conclusion: CDDA 99% Signature: FA6FBDA8F34CD988DEA5349D48ECC30B3D05B788FILE: 09 - Cannon in D Minor.flac Size: 23231693 Hash: 527059C74515AB9DD76F74A12706EBFF Accuracy: -m8 Conclusion: CDDA 100% Signature: 0CD3CDD44D1489543971E5E6BD268F0BA6BB827CFILE: 10 - Blackout.flac Size: 26808093 Hash: 40ECE9D46E73A9E4461E4BF3951E9D9D Accuracy: -m8 Conclusion: CDDA 100% Signature: BCCAFAFD3E196A75AEC653C5B7923083CD79A0F6FILE: 11 - Stronger Faster Braver.flac Size: 32104483 Hash: FED4A8D966FE7AF6D4A28D01B885B4B2 Accuracy: -m8 Conclusion: CDDA 100% Signature: 34E73702914ACA81A0F46DD7CC977D23DF293852

Динамический диапазон

foobar2000 1.2.8 / Dynamic Range Meter 1.1.1log date: 2015-07-31 13:08:50
--------------------------------------------------------------------------------Analyzed: Two Steps From Hell / Battlecry--------------------------------------------------------------------------------
DR Peak RMS Duration Track--------------------------------------------------------------------------------DR4 -0.10 dB -6.28 dB 2:22 01-None Shall LiveDR3 -0.10 dB -5.01 dB 2:58 02-StormkeeperDR4 -0.10 dB -6.37 dB 5:23 03-VictoryDR5 -0.11 dB -7.95 dB 4:17 04-Wolf KingDR5 -0.10 dB -7.37 dB 3:45 05-Rise AboveDR5 -0.10 dB -5.93 dB 3:04 06-SpellcasterDR5 -0.10 dB -7.63 dB 2:58 07-Never Back DownDR4 -0.10 dB -6.95 dB 3:11 08-Red TowerDR4 -0.10 dB -6.56 dB 3:06 09-Cannon in D MinorDR4 -0.10 dB -6.52 dB 3:48 10-BlackoutDR4 -0.10 dB -8.09 dB 4:39 11-Stronger Faster Braver--------------------------------------------------------------------------------
Number of tracks: 11Official DR value: DR4
Samplerate: 44100 HzChannels: 2Bits per sample: 16Bitrate: 922 kbpsCodec: FLAC================================================================================

CD 2 [00:58:21]

01. Battleborne [5:01]
02. Last of the Light [2:56]
03. Ultraground [3:13]
04. Release Me [4:06]
05. Freedom Ship [3:25]
06. Amaria [3:17]
07. Flight of the Silverbird [3:24]
08. Outpost [3:00]
09. Unforgiven [4:13]
10. Across the Blood Water [3:35]
11. No Honor in Blood [3:10]
12. Sariel [2:51]
13. Star Sky [5:33]
14. Battleborne (Instrumental) [5:02]
15. Star Sky (Instrumental) [5:35]

Лог создания рипа

Exact Audio Copy V1.0 beta 3 from 29. August 2011
EAC extraction logfile from 29. July 2015, 21:53
Two Steps From Hell / Battlecry
Used drive : hp DVD A DS8A8SH Adapter: 0 ID: 1
Read mode : SecureUtilize accurate stream : YesDefeat audio cache : YesMake use of C2 pointers : No
Read offset correction : 6Overread into Lead-In and Lead-Out : NoFill up missing offset samples with silence : YesDelete leading and trailing silent blocks : NoNull samples used in CRC calculations : YesUsed interface : Native Win32 interface for Win NT & 2000Gap handling : Appended to previous track
Used output format : User Defined EncoderSelected bitrate : 1024 kBit/sQuality : HighAdd ID3 tag : NoCommand line compressor : C:\Program Files (x86)\Exact Audio Copy\Flac\flac.exeAdditional command line options : -8 -V -T "ARTIST=%artist%" -T "TITLE=%title%" -T "ALBUM=%albumtitle%" -T "DATE=%year%" -T "TRACKNUMBER=%tracknr%" -T "GENRE=%genre%" -T "PERFORMER=%albuminterpret%" -T "COMPOSER=%composer%" %haslyrics%--tag-from-file=LYRICS="%lyricsfile%"%haslyrics% -T "ALBUMARTIST=%albumartist%" -T "DISCNUMBER=%cdnumber%" -T "TOTALDISCS=%totalcds%" -T "TOTALTRACKS=%numtracks%" -T "COMMENT=%comment%" %source% -o %dest%
TOC of the extracted CD
Track | Start | Length | Start sector | End sector --------------------------------------------------------- 1 | 0:00.00 | 5:01.36 | 0 | 22610 2 | 5:01.36 | 2:56.04 | 22611 | 35814 3 | 7:57.40 | 3:13.05 | 35815 | 50294 4 | 11:10.45 | 4:05.43 | 50295 | 68712 5 | 15:16.13 | 3:25.02 | 68713 | 84089 6 | 18:41.15 | 3:16.65 | 84090 | 98854 7 | 21:58.05 | 3:23.69 | 98855 | 114148 8 | 25:21.74 | 3:00.20 | 114149 | 127668 9 | 28:22.19 | 4:12.47 | 127669 | 146615 10 | 32:34.66 | 3:35.29 | 146616 | 162769 11 | 36:10.20 | 3:10.00 | 162770 | 177019 12 | 39:20.20 | 2:51.20 | 177020 | 189864 13 | 42:11.40 | 5:32.53 | 189865 | 214817 14 | 47:44.18 | 5:01.43 | 214818 | 237435 15 | 52:45.61 | 5:35.05 | 237436 | 262565
Track 1
Filename C:\EAC Rips\Two Steps From Hell - Battlecry (2015) [FLAC]\Disc 2\01 - Battleborne.wav
Pre-gap length 0:00:02.00
Peak level 98.8 % Extraction speed 1.9 X Track quality 100.0 % Test CRC F332373C Copy CRC F332373C Accurately ripped (confidence 2) [FDEADFA4] (AR v2) Copy OK
Track 2
Filename C:\EAC Rips\Two Steps From Hell - Battlecry (2015) [FLAC]\Disc 2\02 - Last of the Light.wav
Pre-gap length 0:00:02.00
Peak level 98.8 % Extraction speed 2.0 X Track quality 100.0 % Test CRC 1C371D7F Copy CRC 1C371D7F Accurately ripped (confidence 2) [453559AD] (AR v2) Copy OK
Track 3
Filename C:\EAC Rips\Two Steps From Hell - Battlecry (2015) [FLAC]\Disc 2\03 - Ultraground.wav
Pre-gap length 0:00:02.00
Peak level 98.8 % Extraction speed 2.1 X Track quality 100.0 % Test CRC A76693EA Copy CRC A76693EA Accurately ripped (confidence 2) [63E069E7] (AR v2) Copy OK
Track 4
Filename C:\EAC Rips\Two Steps From Hell - Battlecry (2015) [FLAC]\Disc 2\04 - Release Me.wav
Pre-gap length 0:00:02.00
Peak level 98.8 % Extraction speed 2.4 X Track quality 100.0 % Test CRC 478F49C5 Copy CRC 478F49C5 Accurately ripped (confidence 2) [ED2DB930] (AR v2) Copy OK
Track 5
Filename C:\EAC Rips\Two Steps From Hell - Battlecry (2015) [FLAC]\Disc 2\05 - Freedom Ship.wav
Pre-gap length 0:00:02.00
Peak level 98.8 % Extraction speed 2.5 X Track quality 100.0 % Test CRC EB004D3C Copy CRC EB004D3C Accurately ripped (confidence 2) [869AC7B1] (AR v2) Copy OK
Track 6
Filename C:\EAC Rips\Two Steps From Hell - Battlecry (2015) [FLAC]\Disc 2\06 - Amaria.wav
Pre-gap length 0:00:02.00
Peak level 98.8 % Extraction speed 1.9 X Track quality 99.9 % Test CRC EEBD08D4 Copy CRC EEBD08D4 Accurately ripped (confidence 2) [B8A9A851] (AR v2) Copy OK
Track 7
Filename C:\EAC Rips\Two Steps From Hell - Battlecry (2015) [FLAC]\Disc 2\07 - Flight of the Silverbird.wav
Pre-gap length 0:00:02.00
Peak level 98.8 % Extraction speed 2.7 X Track quality 100.0 % Test CRC 33179DFE Copy CRC 33179DFE Accurately ripped (confidence 2) [45CDEA28] (AR v2) Copy OK
Track 8
Filename C:\EAC Rips\Two Steps From Hell - Battlecry (2015) [FLAC]\Disc 2\08 - Outpost.wav
Pre-gap length 0:00:02.00
Peak level 98.8 % Extraction speed 2.0 X Track quality 99.9 % Test CRC BEEA34BC Copy CRC BEEA34BC Accurately ripped (confidence 2) [92B3A22D] (AR v2) Copy OK
Track 9
Filename C:\EAC Rips\Two Steps From Hell - Battlecry (2015) [FLAC]\Disc 2\09 - Unforgiven.wav
Pre-gap length 0:00:02.00
Peak level 98.8 % Extraction speed 2.4 X Track quality 99.9 % Test CRC CBDC3AEF Copy CRC CBDC3AEF Accurately ripped (confidence 2) [DFF58F84] (AR v2) Copy OK
Track 10
Filename C:\EAC Rips\Two Steps From Hell - Battlecry (2015) [FLAC]\Disc 2\10 - Across the Blood Water.wav
Pre-gap length 0:00:02.00
Peak level 98.8 % Extraction speed 3.1 X Track quality 100.0 % Test CRC 98F489E1 Copy CRC 98F489E1 Accurately ripped (confidence 2) [6AF03155] (AR v2) Copy OK
Track 11
Filename C:\EAC Rips\Two Steps From Hell - Battlecry (2015) [FLAC]\Disc 2\11 - No Honor in Blood.wav
Pre-gap length 0:00:02.00
Peak level 98.8 % Extraction speed 3.1 X Track quality 100.0 % Test CRC 11D8587A Copy CRC 11D8587A Accurately ripped (confidence 2) [FCACC4A5] (AR v2) Copy OK
Track 12
Filename C:\EAC Rips\Two Steps From Hell - Battlecry (2015) [FLAC]\Disc 2\12 - Sariel.wav
Pre-gap length 0:00:02.00
Peak level 98.8 % Extraction speed 3.1 X Track quality 100.0 % Test CRC 3BD7BDCF Copy CRC 3BD7BDCF Accurately ripped (confidence 2) [1398399F] (AR v2) Copy OK
Track 13
Filename C:\EAC Rips\Two Steps From Hell - Battlecry (2015) [FLAC]\Disc 2\13 - Star Sky.wav
Pre-gap length 0:00:02.00
Peak level 98.8 % Extraction speed 3.6 X Track quality 100.0 % Test CRC 0123B0BB Copy CRC 0123B0BB Accurately ripped (confidence 2) [E3F7B243] (AR v2) Copy OK
Track 14
Filename C:\EAC Rips\Two Steps From Hell - Battlecry (2015) [FLAC]\Disc 2\14 - Battleborne (Instrumental).wav
Pre-gap length 0:00:02.00
Peak level 98.7 % Extraction speed 3.7 X Track quality 100.0 % Test CRC 7459634A Copy CRC 7459634A Accurately ripped (confidence 2) [FCB7CE19] (AR v2) Copy OK
Track 15
Filename C:\EAC Rips\Two Steps From Hell - Battlecry (2015) [FLAC]\Disc 2\15 - Star Sky (Instrumental).wav
Pre-gap length 0:00:02.00
Peak level 98.8 % Extraction speed 3.9 X Track quality 100.0 % Test CRC 53628563 Copy CRC 53628563 Accurately ripped (confidence 2) [F781672A] (AR v2) Copy OK
All tracks accurately ripped
No errors occurred
End of status report
---- CUETools DB Plugin V2.1.3
[CTDB TOCID: NJxTgiqQMReu.5VUphv4SmaOgv0-] found, Submit result: NJxTgiqQMReu.5VUphv4SmaOgv0- has been confirmed[32213db6] (16/16) Accurately ripped
==== Log checksum F3BA22C12C5B148970520547D6FAB83250B0436582D73C1521E81503FB7E8A46 ====

Содержание индексной карты (.CUE)

REM DATE 2015REM DISCID C30DAC0FREM COMMENT "ExactAudioCopy v1.0b3"PERFORMER "Two Steps From Hell"TITLE "Battlecry CD 2"FILE "01 - Battleborne.wav" WAVE TRACK 01 AUDIO TITLE "Battleborne" PERFORMER "Two Steps From Hell" ISRC US3DF1505736 INDEX 01 00:00:00 TRACK 02 AUDIO TITLE "Last of the Light" PERFORMER "Two Steps From Hell" ISRC US3DF1505735 INDEX 00 04:59:36FILE "02 - Last of the Light.wav" WAVE INDEX 01 00:00:00 TRACK 03 AUDIO TITLE "Ultraground" PERFORMER "Two Steps From Hell" ISRC US3DF1505737 INDEX 00 02:54:04FILE "03 - Ultraground.wav" WAVE INDEX 01 00:00:00 TRACK 04 AUDIO TITLE "Release Me" PERFORMER "Two Steps From Hell" ISRC US3DF1505738 INDEX 00 03:11:05FILE "04 - Release Me.wav" WAVE INDEX 01 00:00:00 TRACK 05 AUDIO TITLE "Freedom Ship" PERFORMER "Two Steps From Hell" ISRC US3DF1505739 INDEX 00 04:03:43FILE "05 - Freedom Ship.wav" WAVE INDEX 01 00:00:00 TRACK 06 AUDIO TITLE "Amaria" PERFORMER "Two Steps From Hell" ISRC US3DF1505740 INDEX 00 03:23:02FILE "06 - Amaria.wav" WAVE INDEX 01 00:00:00 TRACK 07 AUDIO TITLE "Flight of the Silverbird" PERFORMER "Two Steps From Hell" ISRC US3DF1505741 INDEX 00 03:14:65FILE "07 - Flight of the Silverbird.wav" WAVE INDEX 01 00:00:00 TRACK 08 AUDIO TITLE "Outpost" PERFORMER "Two Steps From Hell" ISRC US3DF1505742 INDEX 00 03:21:69FILE "08 - Outpost.wav" WAVE INDEX 01 00:00:00 TRACK 09 AUDIO TITLE "Unforgiven" PERFORMER "Two Steps From Hell" ISRC US3DF1505745 INDEX 00 02:58:20FILE "09 - Unforgiven.wav" WAVE INDEX 01 00:00:00 TRACK 10 AUDIO TITLE "Across the Blood Water" PERFORMER "Two Steps From Hell" ISRC US3DF1505747 INDEX 00 04:10:47FILE "10 - Across the Blood Water.wav" WAVE INDEX 01 00:00:00 TRACK 11 AUDIO TITLE "No Honor in Blood" PERFORMER "Two Steps From Hell" ISRC US3DF1505746 INDEX 00 03:33:29FILE "11 - No Honor in Blood.wav" WAVE INDEX 01 00:00:00 TRACK 12 AUDIO TITLE "Sariel" PERFORMER "Two Steps From Hell" ISRC US3DF1505748 INDEX 00 03:08:00FILE "12 - Sariel.wav" WAVE INDEX 01 00:00:00 TRACK 13 AUDIO TITLE "Star Sky" PERFORMER "Two Steps From Hell" ISRC US3DF1505749 INDEX 00 02:49:20FILE "13 - Star Sky.wav" WAVE INDEX 01 00:00:00 TRACK 14 AUDIO TITLE "Battleborne (Instrumental)" PERFORMER "Two Steps From Hell" ISRC US3DF1505750 INDEX 00 05:30:53FILE "14 - Battleborne (Instrumental).wav" WAVE INDEX 01 00:00:00 TRACK 15 AUDIO TITLE "Star Sky (Instrumental)" PERFORMER "Two Steps From Hell" ISRC US3DF1505751 INDEX 00 04:59:43FILE "15 - Star Sky (Instrumental).wav" WAVE INDEX 01 00:00:00

Лог проверки качества

-----------------------
DON'T MODIFY THIS FILE
-----------------------
PERFORMER: auCDtect Task Manager, ver. 1.5.1RC6 build 1.5.1.7Copyright (c) 2008-2010 y-soft. All rights reservedhttp://y-soft.org
ANALYZER: auCDtect: CD records authenticity detector, version 0.8.2Copyright (c) 2004 Oleg Berngardt. All rights reserved.Copyright (c) 2004 Alexander Djourik. All rights reserved.
FILE: 01 - Battleborne.flac Size: 34338658 Hash: A9C248BF70CF1799447186B418BFE5C2 Accuracy: -m8 Conclusion: CDDA 100% Signature: 74F02F999DFC5EA43BD8B3703A01D7682D05FED0FILE: 02 - Last of the Light.flac Size: 20169621 Hash: 61F99AC4A5F202E59C42BCB0E7C75B4E Accuracy: -m8 Conclusion: CDDA 100% Signature: 966DBFF0A4726987AAB03CA406BF3E4339B05C7EFILE: 03 - Ultraground.flac Size: 23473095 Hash: 85C75185CEC36B69EE66746669E28494 Accuracy: -m8 Conclusion: CDDA 100% Signature: 9C2C1BC02E8929B0CC00F432B4C9C36B3E8D85CCFILE: 04 - Release Me.flac Size: 27400219 Hash: 33B81ADB6D9D048CB65A4A921CE7C9AE Accuracy: -m8 Conclusion: CDDA 100% Signature: 50A443A0F38474D4B42FB0FEF54DF372B520B165FILE: 05 - Freedom Ship.flac Size: 23010168 Hash: 59A8981053A7FD51F1603B422ADE6CBD Accuracy: -m8 Conclusion: CDDA 100% Signature: 266AF99560FE25E34BA6D0A56B5A5DA7B898B2B5FILE: 06 - Amaria.flac Size: 21666388 Hash: 4CD303E3A928755A907C2F67347B5619 Accuracy: -m8 Conclusion: CDDA 100% Signature: F8BF5ED9CE60C9185B7E4F7CB37F35F789B590BEFILE: 07 - Flight of the Silverbird.flac Size: 24851611 Hash: 9C7F5D6A675C3ED42BAE6F1EBD246124 Accuracy: -m8 Conclusion: CDDA 100% Signature: 0BFE08639A6BCAE886F49B50086BC8719A465498FILE: 08 - Outpost.flac Size: 22527336 Hash: 5DC895734AE7488F74D8152E742D7EBB Accuracy: -m8 Conclusion: CDDA 100% Signature: 3C9946E9D4AF70620AB6DB6028CFA803345F9270FILE: 09 - Unforgiven.flac Size: 29335272 Hash: 41AAD9752C88EF47CF997402CD2652EF Accuracy: -m8 Conclusion: CDDA 100% Signature: F5CDC8E63BE6E083DE91C7305B3F434276E90853FILE: 10 - Across the Blood Water.flac Size: 24890544 Hash: 5AFE75B145D7EBD6332720E4C5BE5384 Accuracy: -m8 Conclusion: CDDA 100% Signature: D67276E37495E09CAB1008A08C77CC49E257038EFILE: 11 - No Honor in Blood.flac Size: 17761167 Hash: 5F23368A21611E4FCDD00887A0A10A98 Accuracy: -m8 Conclusion: CDDA 100% Signature: F43C2C38E0E24DE54EBC6BCA5D939C073D5C3B8CFILE: 12 - Sariel.flac Size: 20851603 Hash: D063FE8D21131296F291985B5C4AD155 Accuracy: -m8 Conclusion: CDDA 100% Signature: 8791BF0D053BFFF124F5AF22FCE18FAAFC3F964AFILE: 13 - Star Sky.flac Size: 41292226 Hash: FB2C16549E81B42293E9C68FE0940439 Accuracy: -m8 Conclusion: CDDA 100% Signature: 2AAEF1CF5B9F2AB499A812056C30F3680BC9B03BFILE: 14 - Battleborne (Instrumental).flac Size: 32317651 Hash: CD953C4CB6CBADF88BFB80F82734CEEC Accuracy: -m8 Conclusion: CDDA 100% Signature: FFFF343BD3A6FF2398963F52AD06BB3EF082B7B9FILE: 15 - Star Sky (Instrumental).flac Size: 39684115 Hash: 024279D5C82A82FB015FE948909D1F27 Accuracy: -m8 Conclusion: CDDA 100% Signature: D715027F599446A7BECA89BF51FE837C27662308

Динамический диапазон

foobar2000 1.2.8 / Dynamic Range Meter 1.1.1log date: 2015-07-31 13:09:14
--------------------------------------------------------------------------------Analyzed: Two Steps From Hell / Battlecry--------------------------------------------------------------------------------
DR Peak RMS Duration Track--------------------------------------------------------------------------------DR4 -0.10 dB -5.78 dB 5:01 01-BattleborneDR6 -0.10 dB -7.76 dB 2:56 02-Last of the LightDR5 -0.10 dB -7.05 dB 3:13 03-UltragroundDR5 -0.10 dB -8.79 dB 4:06 04-Release MeDR4 -0.10 dB -6.23 dB 3:25 05-Freedom ShipDR5 -0.10 dB -9.13 dB 3:17 06-AmariaDR4 -0.10 dB -6.93 dB 3:24 07-Flight of the SilverbirdDR4 -0.10 dB -4.79 dB 3:00 08-OutpostDR6 -0.10 dB -8.42 dB 4:13 09-UnforgivenDR4 -0.10 dB -6.11 dB 3:35 10-Across the Blood WaterDR5 -0.10 dB -9.70 dB 3:10 11-No Honor in BloodDR4 -0.10 dB -5.82 dB 2:51 12-SarielDR5 -0.10 dB -6.87 dB 5:33 13-Star SkyDR6 -0.11 dB -7.04 dB 5:02 14-Battleborne (Instrumental)DR5 -0.10 dB -7.11 dB 5:35 15-Star Sky (Instrumental)--------------------------------------------------------------------------------
Number of tracks: 15Official DR value: DR5
Samplerate: 44100 HzChannels: 2Bits per sample: 16Bitrate: 947 kbpsCodec: FLAC================================================================================

[doutdess.info].t81082.torrent
Torrent: Registered [ 2015-10-05 00:30 ] · 01749F9657CE7A68C59FBA199330DD24DBC3E652

17 KB

Status: checked
Completed: 1 times
Size: 654 MB
(New Age, Classical, Orchestral) Two Steps From Hell - Battlecry (2CD) - 2015, FLAC (tracks+.cue), lossless скачать торрент бесплатно и без регистрации

[Profile] [PM]
Forum Topic Author Size
Фламенко и акустическая гитара lossy (New age, Acoustic guitar) Moreza - Crimson Moon - 2011, MP3, 320 kbps Vi$itReal 107 MB
Фламенко и акустическая гитара lossy (New Age, Acoustic guitar) William Ackerman Discography (1976-2010, 14CD) MP3-tracks CBR 320 kbps Vi$itReal 1.41 GB
Фламенко и акустическая гитара lossy (New Age, Acoustic Guitar, Flamenco) Daveed - World of Illusions (2016), MP3, 320 kbps Vi$itReal 75 MB
NewAge & Meditative lossy (New Age, Acoustic) Antonio Morina Gallerio - Old Fashioned Acoustic Music - 2015, MP3, 320 kbps Vi$itReal 135 MB
NewAge & Meditative lossy (New Age, Acoustic, Ambient) Mishroom & The Galactic Family - Along The Same Path - 2016, MP3, 320 kbps Vi$itReal 134 MB
NewAge & Meditative lossless (New Age, Acoustic, Meditative) Ron Korb - \'Flute Traveller\' - 1994, APE (image+.cue), lossless RelizMAN 159 MB
Фольклор, Народная и Этническая музыка собственные оцифровки (New Age, Acoustic, Neofolk) [24/48] Michael Hedges - Aerial Boundaries - 1984, FLAC (image+.cue) RelizMAN 416 MB
Фламенко и акустическая гитара lossless (New Age, Acoustic, Neofolk) [CD] Michael Hedges - Aerial Boundaries - 1984 (2015 Audio Fidelity), FLAC (tracks+.cue), lossless RelizMAN 173 MB
Display posts:    

Current time is: 27-Jun 15:56

All times are UTC + 3



You cannot post new topics in this forum
You cannot reply to topics in this forum
You cannot edit your posts in this forum
You cannot delete your posts in this forum
You cannot vote in polls in this forum
You cannot attach files in this forum
You can download files in this forum