Reply to topic
DL-List and Torrent activity [Update пиров]
Size:  1.25 GB   |    Registered:  3 years 8 months   |    Completed:  0 times
Seeders:  371  [  0 KB/s  ]   Leechers:  49  [  0 KB/s  ]  
 
     
 
 
Author Message

RelizMAN ®

11

Post 05-Oct-2015 00:31

[Quote]

Celtophile 4CD
The Celts Rise Again
Masters of the Celtic Accordion: The Big Squeeze
Songs Of My Irish Homeland: For Love Of Erin
Celtic Music For Harp: My Gentle Harp

Жанр: New Age, Celtic, Folk
Страна-производитель диска: Canada
Год издания: 1998-1999
Издатель (лейбл): Green Linnet Records, Inc
Номер по каталогу: 123
Аудиокодек: FLAC (*.flac)
Тип рипа: image+.cue
Битрейт аудио: lossless
Источник (релизер): диск с полки
Наличие сканов в содержимом раздачи: нет

The Celts Rise Again

Год издания: 1998
Номер по каталогу: CELT 9013
Продолжительность: 62:41
Треклист:
1. The Chorus Reel/Ashmolean House - Jerry O'Sullivan
2. Humours of the King of Ballyhooley - Andy Irvine, Patrick Street
3. Donald MacLean's Farewell to Oban/Dunrobin Castle/The Wise Maid/Iain's - The Tannahill Weavers
4. Clarke's Favorite/Pigeon on the Gate - Liz Carroll
5. Iain Ghlinn' Cuaich - Capercaillie
6. Trip to Skye/Darach De Brun's - John Whelan, Eileen Ivers
7. Take Her in Your Arms - Manus Lunny, Andy M. Stewart
8. Music for a Found Harmonium - Patrick Street
9. Brian Boru's March/Sporting Paddy/The Traveler - Michael Cooney, Terry Corcoran, Joe Burke
10. The Boys of the Town/Jackson's Jig/The Connaughtman's Rambles - Matt Malloy
11. Siuil a Run - kylark, Len Graham
12. Jesuitmont - Jamie McKenny, Kornog
13. Margaret's Waltz - Buttons & Bows
14. Con Cassidy's and Neil Gow's Highlands/Moll and Tiarna/McWweeney's Reel - Altan
15. Keg of Brandy - Robbie O'Connell
16. Dr. Gilbert/Flax in Bloom - Seamus Conolly
17. Elizabeth's Air - Gerald Trimble
18. Reels: The Humors of Tulla/Toss the Feathers/Saint Anne's Reel/Lexy McA - Phil Cunningham, John Cunningham

Лог создания рипа

Exact Audio Copy V1.0 beta 3 from 29. August 2011
EAC extraction logfile from 23. May 2013, 6:58
Various Artists / The Celts Rise Again
Used drive : TSSTcorpCD/DVDW TS-H653L Adapter: 1 ID: 0
Read mode : SecureUtilize accurate stream : YesDefeat audio cache : YesMake use of C2 pointers : No
Read offset correction : 6Overread into Lead-In and Lead-Out : NoFill up missing offset samples with silence : YesDelete leading and trailing silent blocks : NoNull samples used in CRC calculations : YesUsed interface : Native Win32 interface for Win NT & 2000
Used output format : User Defined EncoderSelected bitrate : 896 kBit/sQuality : HighAdd ID3 tag : NoCommand line compressor : C:\Program Files (x86)\Exact Audio Copy\FLAC\FLAC.EXEAdditional command line options : -6 -V -T "ARTIST=%artist%" -T "TITLE=%title%" -T "ALBUM=%albumtitle%" -T "DATE=%year%" -T "TRACKNUMBER=%tracknr%" -T "GENRE=%genre%" -T "COMMENT=%comment%" -T "BAND=%albuminterpret%" -T "ALBUMARTIST=%albuminterpret%" -T "COMPOSER=%composer%" %haslyrics%--tag-from-file=LYRICS="%lyricsfile%"%haslyrics% -T "DISCNUMBER=%cdnumber%" -T "TOTALDISCS=%totalcds%" -T "TOTALTRACKS=%numtracks%" %hascover%--picture="%coverfile%"%hascover% %source% -o %dest%
TOC of the extracted CD
Track | Start | Length | Start sector | End sector --------------------------------------------------------- 1 | 0:00.00 | 2:16.50 | 0 | 10249 2 | 2:16.50 | 4:09.57 | 10250 | 28981 3 | 6:26.32 | 4:06.10 | 28982 | 47441 4 | 10:32.42 | 2:10.20 | 47442 | 57211 5 | 12:42.62 | 3:19.68 | 57212 | 72204 6 | 16:02.55 | 4:41.57 | 72205 | 93336 7 | 20:44.37 | 4:05.68 | 93337 | 111779 8 | 24:50.30 | 2:43.12 | 111780 | 124016 9 | 27:33.42 | 3:59.30 | 124017 | 141971 10 | 31:32.72 | 4:55.70 | 141972 | 164166 11 | 36:28.67 | 2:38.35 | 164167 | 176051 12 | 39:07.27 | 4:28.18 | 176052 | 196169 13 | 43:35.45 | 4:19.50 | 196170 | 215644 14 | 47:55.20 | 3:42.20 | 215645 | 232314 15 | 51:37.40 | 2:10.12 | 232315 | 242076 16 | 53:47.52 | 8:54.23 | 242077 | 282149
Range status and errors
Selected range
Filename D:\Tracks\Various Artists - The Celts Rise Again.wav
Peak level 95.2 % Extraction speed 6.3 X Range quality 100.0 % Test CRC 140CB464 Copy CRC 140CB464 Copy OK
No errors occurred
AccurateRip summary
Track 1 cannot be verified as accurate (confidence 4) [66F46C86], AccurateRip returned [4B461161] (AR v2)Track 2 cannot be verified as accurate (confidence 4) [D5E313A9], AccurateRip returned [A48920AF] (AR v2)Track 3 cannot be verified as accurate (confidence 4) [1CA75C8F], AccurateRip returned [FCFDB8CB] (AR v2)Track 4 cannot be verified as accurate (confidence 4) [6190AC01], AccurateRip returned [484B32C2] (AR v2)Track 5 cannot be verified as accurate (confidence 4) [648BC50C], AccurateRip returned [911B038D] (AR v2)Track 6 cannot be verified as accurate (confidence 4) [79EED781], AccurateRip returned [49CBC675] (AR v2)Track 7 cannot be verified as accurate (confidence 4) [C7A24B93], AccurateRip returned [BCAD9483] (AR v2)Track 8 cannot be verified as accurate (confidence 4) [56395225], AccurateRip returned [2EF277E9] (AR v2)Track 9 cannot be verified as accurate (confidence 4) [0CEC081F], AccurateRip returned [462EA580] (AR v2)Track 10 cannot be verified as accurate (confidence 4) [EB3692B4], AccurateRip returned [3E3BB576] (AR v2)Track 11 cannot be verified as accurate (confidence 4) [271EE664], AccurateRip returned [177305F6] (AR v2)Track 12 cannot be verified as accurate (confidence 4) [D0315202], AccurateRip returned [AA85FD8A] (AR v2)Track 13 cannot be verified as accurate (confidence 4) [E8DD7BD9], AccurateRip returned [25C2CB7D] (AR v2)Track 14 cannot be verified as accurate (confidence 4) [FA380376], AccurateRip returned [7005DAF3] (AR v2)Track 15 cannot be verified as accurate (confidence 4) [3E26C7B4], AccurateRip returned [0B353972] (AR v2)Track 16 cannot be verified as accurate (confidence 3) [49A56FE5], AccurateRip returned [9C0C0E5D] (AR v2)
No tracks could be verified as accurateYou may have a different pressing from the one(s) in the database
End of status report
==== Log checksum 13D829669969CE5805325FA0176EFE3C5616A5CC5225FA42A3EC89E5FB0AC564 ====

Содержание индексной карты (.CUE)

REM GENRE CelticREM DATE 1998REM DISCID 020EB210REM COMMENT "ExactAudioCopy v1.0b3"CATALOG 0000000000000PERFORMER "Various Artists"TITLE "The Celts Rise Again"FILE "Various Artists - The Celts Rise Again.flac" WAVE TRACK 01 AUDIO TITLE "The Chorus Reel / Ashmolean House" PERFORMER "Jerry O'Sullivan" INDEX 01 00:00:00 TRACK 02 AUDIO TITLE "The Humours of the King of Ballyhooley" PERFORMER "Andy Irvine & Patrick Street" INDEX 00 02:15:00 INDEX 01 02:16:50 TRACK 03 AUDIO TITLE "Donald MacLean's Farewell to Oban / Dunrobin Castle / The Wise Maid / Iain's ..." PERFORMER "The Tannahill Weavers" INDEX 00 06:24:55 INDEX 01 06:26:32 TRACK 04 AUDIO TITLE "Clarke's Favorite / Pigeon on the Gate" PERFORMER "Liz Carroll" INDEX 00 10:30:60 INDEX 01 10:32:42 TRACK 05 AUDIO TITLE "Iain Ghlinn' Cuaich" PERFORMER "Capercaillie" INDEX 00 12:41:15 INDEX 01 12:42:62 TRACK 06 AUDIO TITLE "Trip to Skye / Darach De Brun's" PERFORMER "John Whelan & Eileen Ivers" INDEX 00 16:01:02 INDEX 01 16:02:55 TRACK 07 AUDIO TITLE "Take Her In Your Arms" PERFORMER "Andy M. Stewart & Manus Lunny" INDEX 00 20:42:45 INDEX 01 20:44:37 TRACK 08 AUDIO TITLE "Music For A Found Harmonium" PERFORMER "Patrick Street" INDEX 00 24:48:57 INDEX 01 24:50:30 TRACK 09 AUDIO TITLE "Brian Boru's March / Sporting Paddy / The Traveler" PERFORMER "Joe Burke, Michael Cooney & Terry Corcoran" INDEX 00 27:31:72 INDEX 01 27:33:42 TRACK 10 AUDIO TITLE "Jesuitmont" PERFORMER "Kornog" INDEX 00 31:31:22 INDEX 01 31:32:72 TRACK 11 AUDIO TITLE "Margaret's Waltz" PERFORMER "Buttons & Bows" INDEX 00 36:27:37 INDEX 01 36:28:67 TRACK 12 AUDIO TITLE "Con Cassidy's & Neil Gow's Highlands / Moll and Tiarna / McSweeney's Reels" PERFORMER "Altan" INDEX 00 39:05:67 INDEX 01 39:07:27 TRACK 13 AUDIO TITLE "Keg of Brandy" PERFORMER "Robbie O'Connell" INDEX 00 43:34:20 INDEX 01 43:35:45 TRACK 14 AUDIO TITLE "Dr. Gilbert / Flax in Bloom" PERFORMER "Seamus Connolly" INDEX 00 47:53:40 INDEX 01 47:55:20 TRACK 15 AUDIO TITLE "Elizabeth's Air" PERFORMER "Gerald Trimble" INDEX 00 51:36:10 INDEX 01 51:37:40 TRACK 16 AUDIO TITLE "The Humors of Tulla / Toss the Feathers / Saint Anne's Reel / Lexy McAskill /..." PERFORMER "Silly Wizard" INDEX 00 53:45:67 INDEX 01 53:47:52

Masters of the Celtic Accordion: The Big Squeeze

Год издания: 1998
Номер по каталогу: CELT 9014
Продолжительность: 57:16
Треклист:
01. Johnny Allen's / Sporting Nell - Billy McComiskey/Sean McGlynn
02. The Miller Of Draughin / The Humours Of Castlefin - Paddy O'Brien
03. The High Reel / Geoghegan's - Joe Burke
04. Maids Of Selma / Larry Redican's / Dancing Tables - Jimmy Keane
05. Crossing The Shannon / Lad O'Beirne's / The Rough Road - James Keane
06. Andy Stewart's / The Harsh February - Phil Cunningham
07. Desaunay / The Petticoat I Bought In Mullingar - John Whelan
08. Sweeney's Wheel - Jackie Daly/Patrick Street
09. Bucks of Oranmore, The - Joe Burke
10. The Spike Island Lassies / The Humours Of Tulla - Billy McComiskey
11. Lady Lyle / Liz Carroll's - Paddy O'Brien
12. La Bastringue - Jackie Daly/Buttons & Bows
13. The Connaughtman's Rambles / The Cat In The Corner - Joe Burke
14. Master Crowley's / Crowley's #2 - James Keane
15. Lament From Eoin Rhua / The March Of The Gaelic Order - Paddy O'Brien
16. The Yellow Tinker / The Sally Gardens - Billy McComiskey
17. Tom Fleming's / Kitty's Wedding / Sean McGuire's - John Whelan
18. Jackson's #2 / Jean's Reel / The Moving Cloud - Phil Cunningham

Лог создания рипа

Exact Audio Copy V1.0 beta 3 from 29. August 2011
EAC extraction logfile from 23. May 2013, 6:28
Various / The Big Squeeze
Used drive : TSSTcorpCD/DVDW TS-H653L Adapter: 1 ID: 0
Read mode : SecureUtilize accurate stream : YesDefeat audio cache : YesMake use of C2 pointers : No
Read offset correction : 6Overread into Lead-In and Lead-Out : NoFill up missing offset samples with silence : YesDelete leading and trailing silent blocks : NoNull samples used in CRC calculations : YesUsed interface : Native Win32 interface for Win NT & 2000
Used output format : User Defined EncoderSelected bitrate : 896 kBit/sQuality : HighAdd ID3 tag : NoCommand line compressor : C:\Program Files (x86)\Exact Audio Copy\FLAC\FLAC.EXEAdditional command line options : -6 -V -T "ARTIST=%artist%" -T "TITLE=%title%" -T "ALBUM=%albumtitle%" -T "DATE=%year%" -T "TRACKNUMBER=%tracknr%" -T "GENRE=%genre%" -T "COMMENT=%comment%" -T "BAND=%albuminterpret%" -T "ALBUMARTIST=%albuminterpret%" -T "COMPOSER=%composer%" %haslyrics%--tag-from-file=LYRICS="%lyricsfile%"%haslyrics% -T "DISCNUMBER=%cdnumber%" -T "TOTALDISCS=%totalcds%" -T "TOTALTRACKS=%numtracks%" %hascover%--picture="%coverfile%"%hascover% %source% -o %dest%
TOC of the extracted CD
Track | Start | Length | Start sector | End sector --------------------------------------------------------- 1 | 0:00.00 | 2:42.32 | 0 | 12181 2 | 2:42.32 | 1:47.50 | 12182 | 20256 3 | 4:30.07 | 3:03.18 | 20257 | 33999 4 | 7:33.25 | 4:05.07 | 34000 | 52381 5 | 11:38.32 | 2:57.63 | 52382 | 65719 6 | 14:36.20 | 3:48.17 | 65720 | 82836 7 | 18:24.37 | 4:04.45 | 82837 | 101181 8 | 22:29.07 | 2:50.55 | 101182 | 113986 9 | 25:19.62 | 2:53.25 | 113987 | 126986 10 | 28:13.12 | 2:34.20 | 126987 | 138556 11 | 30:47.32 | 2:16.08 | 138557 | 148764 12 | 33:03.40 | 2:32.30 | 148765 | 160194 13 | 35:35.70 | 2:34.70 | 160195 | 171814 14 | 38:10.65 | 2:06.42 | 171815 | 181306 15 | 40:17.32 | 4:49.08 | 181307 | 202989 16 | 45:06.40 | 2:43.57 | 202990 | 215271 17 | 47:50.22 | 4:18.00 | 215272 | 234621 18 | 52:08.22 | 5:08.53 | 234622 | 257774
Range status and errors
Selected range
Filename D:\Tracks\Various - The Big Squeeze.wav
Peak level 100.0 % Extraction speed 5.8 X Range quality 100.0 % Test CRC 02DA4B6E Copy CRC 02DA4B6E Copy OK
No errors occurred
AccurateRip summary
Track 1 cannot be verified as accurate (confidence 1) [14EC8004], AccurateRip returned [5B0D0DB4] (AR v2)Track 2 cannot be verified as accurate (confidence 1) [63A106C9], AccurateRip returned [F9066A8E] (AR v2)Track 3 cannot be verified as accurate (confidence 1) [E75BCBCA], AccurateRip returned [8EDCC558] (AR v2)Track 4 cannot be verified as accurate (confidence 1) [F411234A], AccurateRip returned [D5260F57] (AR v2)Track 5 cannot be verified as accurate (confidence 1) [9FBEB9E6], AccurateRip returned [53B96FE5] (AR v2)Track 6 cannot be verified as accurate (confidence 1) [9A005520], AccurateRip returned [BD0C1497] (AR v2)Track 7 cannot be verified as accurate (confidence 1) [0BA01876], AccurateRip returned [9CF9164D] (AR v2)Track 8 cannot be verified as accurate (confidence 1) [4E8626A0], AccurateRip returned [1C20BA6F] (AR v2)Track 9 cannot be verified as accurate (confidence 1) [1A0B9B05], AccurateRip returned [22A2DCF7] (AR v2)Track 10 cannot be verified as accurate (confidence 1) [A981FBC8], AccurateRip returned [14EB56E3] (AR v2)Track 11 cannot be verified as accurate (confidence 1) [72028E2C], AccurateRip returned [5A5ADF19] (AR v2)Track 12 cannot be verified as accurate (confidence 1) [76C4611F], AccurateRip returned [C8BA93D5] (AR v2)Track 13 cannot be verified as accurate (confidence 1) [B463EBEE], AccurateRip returned [CB1E70ED] (AR v2)Track 14 cannot be verified as accurate (confidence 1) [9DE76733], AccurateRip returned [3B4BE6AB] (AR v2)Track 15 cannot be verified as accurate (confidence 1) [C059A972], AccurateRip returned [CAE1B588] (AR v2)Track 16 cannot be verified as accurate (confidence 1) [8EF45BD2], AccurateRip returned [DE374790] (AR v2)Track 17 cannot be verified as accurate (confidence 1) [5BF9D868], AccurateRip returned [BC0D93B0] (AR v2)Track 18 cannot be verified as accurate (confidence 1) [CD25B97D], AccurateRip returned [5BF3AC35] (AR v2)
No tracks could be verified as accurateYou may have a different pressing from the one(s) in the database
End of status report
==== Log checksum AB9F162345604363654BCF14EF349283679E5B14AE02987EF18291EF3F0CFAF7 ====

Содержание индексной карты (.CUE)

REM GENRE CelticREM DATE 1998REM DISCID F80D6D12REM COMMENT "ExactAudioCopy v1.0b3"CATALOG 0000000000000PERFORMER "Various"TITLE "The Big Squeeze"FILE "Various - The Big Squeeze.flac" WAVE TRACK 01 AUDIO TITLE "Johhy Allen's, Sporting Nell - Reels" PERFORMER "Billy McComiskey & Sean McGlynn" INDEX 01 00:00:00 TRACK 02 AUDIO TITLE "The Miller of Draughin, The Humours of Castlefin - Reels" PERFORMER "Paddy O'Brien" INDEX 00 02:40:32 INDEX 01 02:42:32 TRACK 03 AUDIO TITLE "The High Reel, Geoghegan's - Reels" PERFORMER "Joe Burke" INDEX 00 04:28:07 INDEX 01 04:30:07 TRACK 04 AUDIO TITLE "Maids of Selma, Larry Redican's, Dancing Tables - Jigs" PERFORMER "Jimmy Keane" INDEX 00 07:31:26 INDEX 01 07:33:25 TRACK 05 AUDIO TITLE "Crossing the Shannon, Lad O'Beirne's, The Rough Road - Reels" PERFORMER "James Keane" INDEX 00 11:36:32 INDEX 01 11:38:32 TRACK 06 AUDIO TITLE "Andy Stewart's, The Harsh February - Reels" PERFORMER "Phil Cunningham" INDEX 00 14:34:20 INDEX 01 14:36:20 TRACK 07 AUDIO TITLE "Desaunay, The Petticoat I bought in Mullingar - Hornpipe & Reel" PERFORMER "John Whelan" INDEX 00 18:22:37 INDEX 01 18:24:37 TRACK 08 AUDIO TITLE "Sweeney's Wheel - Reel" PERFORMER "Jackie Daly with Patrick Street" INDEX 00 22:27:07 INDEX 01 22:29:07 TRACK 09 AUDIO TITLE "The Bucks of Oranmore - Reel" PERFORMER "Joe Burke" INDEX 00 25:17:62 INDEX 01 25:19:62 TRACK 10 AUDIO TITLE "The Spike Island Lassies, The Humours of Tulla - Reel" PERFORMER "Billy McComiskey" INDEX 00 28:11:12 INDEX 01 28:13:12 TRACK 11 AUDIO TITLE "Lady Lyle, Liz Carroll's - Strathspey B Reel" PERFORMER "Paddy O'Brien" INDEX 00 30:45:32 INDEX 01 30:47:32 TRACK 12 AUDIO TITLE "La Bastringue" PERFORMER "Jackie Daly" INDEX 00 33:01:40 INDEX 01 33:03:40 TRACK 13 AUDIO TITLE "The Connaughtman's Rambles, The Cat in the Corner - Jigs" PERFORMER "Joe Burke" INDEX 00 35:33:70 INDEX 01 35:35:70 TRACK 14 AUDIO TITLE "Master Crowley's, Crowley's #2 - Reels" PERFORMER "James Keane" INDEX 00 38:08:66 INDEX 01 38:10:65 TRACK 15 AUDIO TITLE "Lament from Eoin Rhua, The March of the Gaelic Order - Slow Air & March" PERFORMER "Paddy O'Brien" INDEX 00 40:15:32 INDEX 01 40:17:32 TRACK 16 AUDIO TITLE "The Yellow Tinker, The Sally Gardens - Reels" PERFORMER "Billy McComiskey" INDEX 00 45:04:40 INDEX 01 45:06:40 TRACK 17 AUDIO TITLE "Tom Fleming's, Kitty's Wedding, Sean McGuire's - Reels" PERFORMER "John Whelan" INDEX 00 47:48:22 INDEX 01 47:50:22 TRACK 18 AUDIO TITLE "Jackson's #2, Jean's Reel, The Moving Cloud - Reels" PERFORMER "Phil Cunningham" INDEX 00 52:06:22 INDEX 01 52:08:22

Songs Of My Irish Homeland: For Love Of Erin

Год издания: 1999
Номер по каталогу: CELT 9017
Продолжительность: 55:41
Треклист:
1. Humours of the King of Ballyhooley, The - Patrick Street
2. Limerick Rake, The - Mick Moloney
3. Lass of Glenshee, The - Altan
4. Newry Town - John Faulkner
5. Kilkelly - The Green Fields of America
6. Rocky Road to Dublin, The - The House Band
7. Benedy Glen, The - Déanta
8. Sweet Lisbweemore - Patrick Street
9. Dublin Lady - Manus Lunny/Andy M. Stewart
10. Bantry Girl's Lament, The - Reeltime
11. Galway Rover, The - Cherish the Ladies

Лог создания рипа

Exact Audio Copy V1.0 beta 3 from 29. August 2011
EAC extraction logfile from 22. May 2013, 23:31
Various / For Love of Erin: Songs Of my Irish Homeland
Used drive : TSSTcorpCD/DVDW TS-H653L Adapter: 1 ID: 0
Read mode : SecureUtilize accurate stream : YesDefeat audio cache : YesMake use of C2 pointers : No
Read offset correction : 6Overread into Lead-In and Lead-Out : NoFill up missing offset samples with silence : YesDelete leading and trailing silent blocks : NoNull samples used in CRC calculations : YesUsed interface : Native Win32 interface for Win NT & 2000
Used output format : User Defined EncoderSelected bitrate : 896 kBit/sQuality : HighAdd ID3 tag : NoCommand line compressor : C:\Program Files (x86)\Exact Audio Copy\FLAC\FLAC.EXEAdditional command line options : -6 -V -T "ARTIST=%artist%" -T "TITLE=%title%" -T "ALBUM=%albumtitle%" -T "DATE=%year%" -T "TRACKNUMBER=%tracknr%" -T "GENRE=%genre%" -T "COMMENT=%comment%" -T "BAND=%albuminterpret%" -T "ALBUMARTIST=%albuminterpret%" -T "COMPOSER=%composer%" %haslyrics%--tag-from-file=LYRICS="%lyricsfile%"%haslyrics% -T "DISCNUMBER=%cdnumber%" -T "TOTALDISCS=%totalcds%" -T "TOTALTRACKS=%numtracks%" %hascover%--picture="%coverfile%"%hascover% %source% -o %dest%
TOC of the extracted CD
Track | Start | Length | Start sector | End sector --------------------------------------------------------- 1 | 0:00.00 | 4:11.02 | 0 | 18826 2 | 4:11.02 | 4:45.55 | 18827 | 40256 3 | 8:56.57 | 4:36.23 | 40257 | 60979 4 | 13:33.05 | 4:30.35 | 60980 | 81264 5 | 18:03.40 | 7:09.37 | 81265 | 113476 6 | 25:13.02 | 6:23.70 | 113477 | 142271 7 | 31:36.72 | 5:51.60 | 142272 | 168656 8 | 37:28.57 | 5:24.63 | 168657 | 193019 9 | 42:53.45 | 4:36.10 | 193020 | 213729 10 | 47:29.55 | 4:24.55 | 213730 | 233584 11 | 51:54.35 | 3:47.20 | 233585 | 250629
Range status and errors
Selected range
Filename D:\Tracks\Various - For Love of Erin- Songs Of my Irish Homeland.wav
Peak level 97.9 % Extraction speed 6.0 X Range quality 100.0 % Test CRC 564A0630 Copy CRC 564A0630 Copy OK
No errors occurred
AccurateRip summary
Track 1 not present in databaseTrack 2 not present in databaseTrack 3 not present in databaseTrack 4 not present in databaseTrack 5 not present in databaseTrack 6 not present in databaseTrack 7 not present in databaseTrack 8 not present in databaseTrack 9 not present in databaseTrack 10 not present in databaseTrack 11 not present in database
None of the tracks are present in the AccurateRip database
End of status report
==== Log checksum 286F0C684AE65FECFD716998DAAEE1630997AA968D601E3CEC253DFABC3142B8 ====

Содержание индексной карты (.CUE)

REM GENRE CelticREM DATE 1999REM DISCID 950D0D0BREM COMMENT "ExactAudioCopy v1.0b3"CATALOG 0000000000000PERFORMER "Various"TITLE "For Love of Erin: Songs Of my Irish Homeland"FILE "Various - For Love of Erin- Songs Of my Irish Homeland.flac" WAVE TRACK 01 AUDIO TITLE "The Humours of the King of Ballyhooley" PERFORMER "Patrick Street" INDEX 01 00:00:00 TRACK 02 AUDIO TITLE "The Limerick Rake" PERFORMER "Mick Moloney" INDEX 00 04:08:50 INDEX 01 04:11:02 TRACK 03 AUDIO TITLE "The Lass of Glenshee" PERFORMER "Altan" INDEX 00 08:54:27 INDEX 01 08:56:57 TRACK 04 AUDIO TITLE "Newry Town" PERFORMER "John Faulkner" INDEX 00 13:31:07 INDEX 01 13:33:05 TRACK 05 AUDIO TITLE "Kilkelly" PERFORMER "Green Fields Of America" INDEX 00 18:01:42 INDEX 01 18:03:40 TRACK 06 AUDIO TITLE "The Rocky Road to Dublin" PERFORMER "House Band" INDEX 00 25:10:42 INDEX 01 25:13:02 TRACK 07 AUDIO TITLE "The Benedy Glen" PERFORMER "Deanta" INDEX 00 31:34:72 INDEX 01 31:36:72 TRACK 08 AUDIO TITLE "Sweet Lisbweemore" PERFORMER "Patrick Street" INDEX 00 37:26:52 INDEX 01 37:28:57 TRACK 09 AUDIO TITLE "Dublin Lady" PERFORMER "Andy Stewart & Manus Lunny" INDEX 00 42:51:55 INDEX 01 42:53:45 TRACK 10 AUDIO TITLE "The Bantry Girl's Lament" PERFORMER "Reeltime" INDEX 00 47:28:37 INDEX 01 47:29:55 TRACK 11 AUDIO TITLE "The Galway Rover" PERFORMER "Cherish The Ladies" INDEX 00 51:52:45 INDEX 01 51:54:35

My Gentle Harp: Celtic Music For Harp

Год издания: 1999
Номер по каталогу: CELT 9019
Продолжительность: 50:52
Треклист:
1. Harp Airs: Rock of Esse/Ascent - Deanta
2. Pipers (The Glasgow Police Pipe Band) - Sрмleas
3. Blind Mary - Joe Burke
4. Dogs - Sрмleas
5. Gravelly Groove - Deanta
6. Women of Ireland - Rosalyn Briley
7. Maneo da Ulla/Foliada de Padrenda - Milladoiro
8. Eleanor Plunkett - Deanta
9. Solos (The Cameron Highlanders) - Sрмleas
10. O'Carolan's Farewell to Music - Rosalyn Briley
11. Cogair R·in - Deanta
12. Farewell to My Gentle Harp - Rosalyn Briley
13. Miss Gordon of Gight - Sileas

Лог создания рипа

Exact Audio Copy V1.0 beta 3 from 29. August 2011
EAC extraction logfile from 22. May 2013, 22:59
Various / Celtic Music For Harp - My Gentle Harp
Used drive : TSSTcorpCD/DVDW TS-H653L Adapter: 1 ID: 0
Read mode : SecureUtilize accurate stream : YesDefeat audio cache : YesMake use of C2 pointers : No
Read offset correction : 6Overread into Lead-In and Lead-Out : NoFill up missing offset samples with silence : YesDelete leading and trailing silent blocks : NoNull samples used in CRC calculations : YesUsed interface : Native Win32 interface for Win NT & 2000
Used output format : User Defined EncoderSelected bitrate : 896 kBit/sQuality : HighAdd ID3 tag : NoCommand line compressor : C:\Program Files (x86)\Exact Audio Copy\FLAC\FLAC.EXEAdditional command line options : -6 -V -T "ARTIST=%artist%" -T "TITLE=%title%" -T "ALBUM=%albumtitle%" -T "DATE=%year%" -T "TRACKNUMBER=%tracknr%" -T "GENRE=%genre%" -T "COMMENT=%comment%" -T "BAND=%albuminterpret%" -T "ALBUMARTIST=%albuminterpret%" -T "COMPOSER=%composer%" %haslyrics%--tag-from-file=LYRICS="%lyricsfile%"%haslyrics% -T "DISCNUMBER=%cdnumber%" -T "TOTALDISCS=%totalcds%" -T "TOTALTRACKS=%numtracks%" %hascover%--picture="%coverfile%"%hascover% %source% -o %dest%
TOC of the extracted CD
Track | Start | Length | Start sector | End sector --------------------------------------------------------- 1 | 0:00.00 | 5:25.72 | 0 | 24446 2 | 5:25.72 | 3:31.73 | 24447 | 40344 3 | 8:57.70 | 3:50.20 | 40345 | 57614 4 | 12:48.15 | 3:36.22 | 57615 | 73836 5 | 16:24.37 | 3:12.45 | 73837 | 88281 6 | 19:37.07 | 3:19.05 | 88282 | 103211 7 | 22:56.12 | 3:29.03 | 103212 | 118889 8 | 26:25.15 | 4:18.70 | 118890 | 138309 9 | 30:44.10 | 4:26.37 | 138310 | 158296 10 | 35:10.47 | 4:40.08 | 158297 | 179304 11 | 39:50.55 | 3:52.60 | 179305 | 196764 12 | 43:43.40 | 3:04.35 | 196765 | 210599 13 | 46:48.00 | 4:04.20 | 210600 | 228919
Range status and errors
Selected range
Filename D:\Tracks\Various - Celtic Music For Harp - My Gentle Harp.wav
Peak level 97.5 % Extraction speed 5.8 X Range quality 100.0 % Test CRC 848470C8 Copy CRC 848470C8 Copy OK
No errors occurred
AccurateRip summary
Track 1 not present in databaseTrack 2 not present in databaseTrack 3 not present in databaseTrack 4 not present in databaseTrack 5 not present in databaseTrack 6 not present in databaseTrack 7 not present in databaseTrack 8 not present in databaseTrack 9 not present in databaseTrack 10 not present in databaseTrack 11 not present in databaseTrack 12 not present in databaseTrack 13 not present in database
None of the tracks are present in the AccurateRip database
End of status report
==== Log checksum E6522DC7199B927B18833A86DFB768A200B989EE63D035ABFD5C57D31F009BDD ====

Содержание индексной карты (.CUE)

REM GENRE CelticREM DATE 1999REM DISCID C10BEC0DREM COMMENT "ExactAudioCopy v1.0b3"CATALOG 0000000000000PERFORMER "Various"TITLE "Celtic Music For Harp - My Gentle Harp"FILE "Various - Celtic Music For Harp - My Gentle Harp.flac" WAVE TRACK 01 AUDIO TITLE "Harp Airs: Rock of Esse/Ascent" PERFORMER "Deanta" INDEX 01 00:00:00 TRACK 02 AUDIO TITLE "The Pipers (The Glasgow Police Pipe Band)" PERFORMER "Sileas" INDEX 00 05:23:37 INDEX 01 05:25:72 TRACK 03 AUDIO TITLE "Blind Mary" PERFORMER "Joe Burke & Maire Ni Chathasaigh" INDEX 00 08:55:40 INDEX 01 08:57:70 TRACK 04 AUDIO TITLE "The Dogs" PERFORMER "Sileas" INDEX 00 12:46:12 INDEX 01 12:48:15 TRACK 05 AUDIO TITLE "Gravelly Groove" PERFORMER "Deanta" INDEX 00 16:22:07 INDEX 01 16:24:37 TRACK 06 AUDIO TITLE "Women of Ireland" PERFORMER "Rosalyn Briley & Barbara Nolan" INDEX 00 19:34:50 INDEX 01 19:37:07 TRACK 07 AUDIO TITLE "Maneo da Ulla/Foliada de Padrenda" PERFORMER "Milladoiro" INDEX 00 22:53:72 INDEX 01 22:56:12 TRACK 08 AUDIO TITLE "Eleanor Plunkett" PERFORMER "Deanta" INDEX 00 26:22:57 INDEX 01 26:25:15 TRACK 09 AUDIO TITLE "The Solos (The Cameron Highlanders)" PERFORMER "Sileas" INDEX 00 30:41:51 INDEX 01 30:44:10 TRACK 10 AUDIO TITLE "O'Carolan's Farewell to Music" PERFORMER "Jerry O'Sullivan & Rosalyn Briley" INDEX 00 35:08:15 INDEX 01 35:10:47 TRACK 11 AUDIO TITLE "Cogair Ruin" PERFORMER "Deanta" INDEX 00 39:48:27 INDEX 01 39:50:55 TRACK 12 AUDIO TITLE "Farewell to My Gentle Harp" PERFORMER "Eugene O'Donnell & Rosalyn Briley" INDEX 00 43:41:07 INDEX 01 43:43:40 TRACK 13 AUDIO TITLE "Miss Gordon of Gight" PERFORMER "Sileas" INDEX 00 46:45:47 INDEX 01 46:48:00

[doutdess.info].t81073.torrent
Torrent: Registered [ 2015-10-05 00:30 ] · 6630D78D6578265624007134348917865DF030A9

14 KB

Status: checked
Completed: 0 times
Size: 1.25 GB
(New Age, Celtic, Folk) VA - Celtophile 4CD - 1998-1999, FLAC (image+.cue), lossless скачать торрент бесплатно и без регистрации

[Profile] [PM]
Forum Topic Author Size
Фламенко и акустическая гитара lossy (New age, Acoustic guitar) Moreza - Crimson Moon - 2011, MP3, 320 kbps Vi$itReal 107 MB
Фламенко и акустическая гитара lossy (New Age, Acoustic guitar) William Ackerman Discography (1976-2010, 14CD) MP3-tracks CBR 320 kbps Vi$itReal 1.41 GB
Фламенко и акустическая гитара lossy (New Age, Acoustic Guitar, Flamenco) Daveed - World of Illusions (2016), MP3, 320 kbps Vi$itReal 75 MB
NewAge & Meditative lossy (New Age, Acoustic) Antonio Morina Gallerio - Old Fashioned Acoustic Music - 2015, MP3, 320 kbps Vi$itReal 135 MB
NewAge & Meditative lossy (New Age, Acoustic, Ambient) Mishroom & The Galactic Family - Along The Same Path - 2016, MP3, 320 kbps Vi$itReal 134 MB
NewAge & Meditative lossless (New Age, Acoustic, Meditative) Ron Korb - \'Flute Traveller\' - 1994, APE (image+.cue), lossless RelizMAN 159 MB
Фольклор, Народная и Этническая музыка собственные оцифровки (New Age, Acoustic, Neofolk) [24/48] Michael Hedges - Aerial Boundaries - 1984, FLAC (image+.cue) RelizMAN 416 MB
Фламенко и акустическая гитара lossless (New Age, Acoustic, Neofolk) [CD] Michael Hedges - Aerial Boundaries - 1984 (2015 Audio Fidelity), FLAC (tracks+.cue), lossless RelizMAN 173 MB
Display posts:    

Current time is: 24-Jun 18:20

All times are UTC + 3



You cannot post new topics in this forum
You cannot reply to topics in this forum
You cannot edit your posts in this forum
You cannot delete your posts in this forum
You cannot vote in polls in this forum
You cannot attach files in this forum
You can download files in this forum