Ответить на тему
Статистика раздачи [Обновить пиров]
Размер:  4,31 GB   |    Зарегистрирован:  7 месяцев 17 дней   |    Скачан:  2 раза
Сидов:  378  [  0 KB/s  ]   Личеров:  52  [  0 KB/s  ]  
 
     
 
 
Автор Сообщение

Vi$itReal ®

12

Создавать темы 08-Авг-2018 16:40

[Цитировать]

Antonio Vivaldi: Concertos for Oboe, Strings & Basso Continuo-- Формат записи/Источник записи: [DSD][OF]
Наличие водяных знаков: Нет
Год издания: 2010
Жанр: Classical, Orchestral
Издатель (лейбл): Challenge Classics
Продолжительность: 00:54:36
Наличие сканов в содержимом раздачи: Буклет PDF
Контейнер: DSF (*.dsf)
Тип рипа: tracks
Разрядность: 128(5,6 MHz/1 Bit)
Формат: DSD
Количество каналов: 2.0
Источник (релизер): spiritofturtle.com-Pauline Oostenrijk - oboe
Jan Willem de Vriend - conductor and artistic director
Baroque Academy of The Netherlands Symphony Orchestra-Executive producer: Anne de Jong
Recorded at: Muziekcentrum Enschede (NL)
Recording dates: 9-11 June 2010
Recording producer: Bert van der Wolf
Recorded by: NorthStar Recording Services-

Треклист:

Concerto in a minor RV 463
1. I. Allegro
2. II. Largo
3. III. Allegro
Concerto in C major RV 450
4. I. Allegro molto
5. II. Larghetto
6. III. Allegro
Concerto in a minor RV 461
7. I. Allegro non molto
8. II. Larghetto
9. III. Allegro
Concerto in d minor per Archi e Cembalo RV 127
10. I. Allegro
11. II. Largo
12. III. Allegro
Concerto in F major RV 457
13. I. Allegro non molto
14. II. Andante
15. III. Allegro molto
Concerto in d minor RV 454
16. I. Allegro (moderato)
17. II. Largo
18. III. Allegro
Concerto in F major RV 455
19. I. (Allegro)*
20. II. (Grave)*
21. III. (Allegro)*
* no tempo indication in manuscript

Лог проверки качества

foobar2000 1.4 / Dynamic Range Meter 1.1.1log date: 2018-08-05 19:10:35
--------------------------------------------------------------------------------Analyzed: Pauline Oostenrijk, Baroque Academy of the Netherlands Symphony Orchestra, Jan Willem de Vriend / Vivaldi: Concertos for oboe, strings and basso continuo--------------------------------------------------------------------------------
DR Peak RMS Duration Track--------------------------------------------------------------------------------DR12 -7.70 dB -24.33 dB 3:01 01-Concerto in A minor, RV 463: I. AllegroDR13 -9.95 dB -27.02 dB 3:06 02-Concerto in A minor, RV 463: II. LargoDR13 -8.09 dB -24.09 dB 2:49 03-Concerto in A minor, RV 463: III. AllegroDR14 -8.01 dB -25.43 dB 4:01 04-Concerto in C major, RV 450: I. Allegro moltoDR12 -9.96 dB -26.49 dB 2:59 05-Concerto in C major, RV 450: II. LarghettoDR13 -8.10 dB -25.21 dB 2:56 06-Concerto in C major, RV 450: III. AllegroDR12 -8.61 dB -24.52 dB 3:43 07-Concerto in A minor, RV 461: I. Allegro non moltoDR13 -9.32 dB -28.30 dB 2:02 08-Concerto in A minor, RV 461: II. LarghettoDR13 -6.65 dB -23.72 dB 2:28 09-Concerto in A minor, RV 461: III. AllegroDR12 -7.47 dB -21.98 dB 1:17 10-Concerto in D minor per Archi e Cembalo, RV 127: I. AllegroDR10 -16.63 dB -31.74 dB 1:08 11-Concerto in D minor per Archi e Cembalo, RV 127: II. LargoDR14 -6.49 dB -23.27 dB 1:06 12-Concerto in D minor per Archi e Cembalo, RV 127: III. AllegroDR14 -8.32 dB -25.76 dB 4:05 13-Concerto in F major, RV 457: I. Allegro non moltoDR12 -10.81 dB -28.34 dB 1:57 14-Concerto in F major, RV 457: II. AndanteDR13 -7.92 dB -25.63 dB 2:34 15-Concerto in F major, RV 457: III. Allegro moltoDR12 -7.93 dB -24.08 dB 2:54 16-Concerto in D minor, RV 454: I. Allegro (moderato)DR11 -7.66 dB -24.77 dB 2:25 17-Concerto in D minor, RV 454: II. LargoDR12 -6.43 dB -22.92 dB 2:31 18-Concerto in D minor, RV 454: III. AllegroDR13 -6.12 dB -23.29 dB 3:12 19-Concerto in F major, RV 455: I. AllegroDR11 -8.97 dB -29.02 dB 1:47 20-Concerto in F major, RV 455: II. GraveDR14 -6.65 dB -24.78 dB 2:33 21-Concerto in F major, RV 455: III. Allegro--------------------------------------------------------------------------------
Number of tracks: 21Official DR value: DR13Samplerate: 5644800 Hz / PCM Samplerate: 176400 HzChannels: 2Bits per sample: 1Bitrate: 11290 kbpsCodec: DSD128================================================================================

Об альбоме (сборнике)

In Vivaldi’s oeuvre, there is only one composition of which we are totally certain it was written for Pelegrina. Above the manuscript of the Sonata for oboe, violin, chalumeau and organ, RV 779, Vivaldi wrote the names of the girls for whom the piece was intended: Pelegrina dall’ Obo, Prudenza dal Contralto, Candida dalla Viola and Lucietta Organista*. But since Pelegrina was by far the most accomplished oboist when Vivaldi worked at the Ospedale (the only other oboist mentioned in the archives is one Susanna, in 1726), we can assume that a number of the oboe concertos featured on this CD were also written for, and performed by, Pelegrina. And that is why I would like to dedicate this recording to her.
To you, Pelegrina dall’ Obo, who came into this world with so little; but who managed to breathe colour and lustre into life with that beautiful, yet so obstinate, double-reed instrument; and who inspired one of the greatest Baroque composers to create little gems we can enjoy to this very day.

[doutdess.info].t283006.torrent
Торрент: Зарегистрирован [ 2018-08-08 16:40 ] · D8461DEE658F4D44D0CBDF8FB99184BEEB9A120F

24 KB

Статус: проверено
Скачан: 2 раз
Размер: 4,31 GB
[DSD][OF]Vivaldi - Concertos for Oboe, Strings & Basso Continuo (Baroque Academy of The Netherlands Symphony Orchestra, Jan Willem de Vriend) - 2010 (Classical, Orchestral) скачать торрент бесплатно и без регистрации

[Профиль] [ЛС]
Показать сообщения:    

Текущее время: 25-Мар 20:48

Часовой пояс: UTC + 3



Вы не можете начинать темы
Вы не можете отвечать на сообщения
Вы не можете редактировать свои сообщения
Вы не можете удалять свои сообщения
Вы не можете голосовать в опросах
Вы не можете прикреплять файлы к сообщениям
Вы можете скачивать файлы