Reply to topic
DL-List and Torrent activity [Update пиров]
Size:  238 MB   |    Registered:  1 year 3 months   |    Completed:  0 times
Seeders:  582  [  0 KB/s  ]   Leechers:  5  [  0 KB/s  ]  
 
     
 
 
Author Message

Vi$itReal ®

12

Post 19-Apr-2018 22:45

[Quote]

Weber, Neukomm - Clarinet Quintets - Eric Hoeprich, Ensemble LES ADIEUX
Жанр: Classical
Страна-производитель диска: Germany
Год издания диска: 2007
Издатель (лейбл): New Classical Adventure
Дата записи: 1993
Аудиокодек: FLAC
Тип рипа: image+.cue
Битрейт аудио: lossless
Продолжительность: 54:24
Источник: собственный рип
Наличие сканов в содержимом раздачи: да
Треклист:
Carl Maria von Weber (1786-1826)
[1]-[4] Quintet in B flat major, Op. 34 for Clarinet, 2 Violins, Viola and Cello
Sigismund Neukomm (1788-1858)
[5]-[8] Quintet in B flat major, Op. 8 for Clarinet, 2 Violins, Viola and Cello
Исполнители:
Eric Hoeprich B flat clarinet
Mary Utiger violin
Ursula Bundies violin
Hajo Bäß viola
Nicholas Selo cello

Лог создания рипа

Exact Audio Copy V1.1 from 23. June 2015
EAC extraction logfile from 8. May 2016, 23:56
Eric Hoeprich, Mary Utiger, Ursula Bundies, Hajo Bäß, Nicholas Selo / Weber, Neukomm - Clarinet Quintets
Used drive : HL-DT-STDVDRAM GU70N Adapter: 1 ID: 0
Read mode : SecureUtilize accurate stream : YesDefeat audio cache : YesMake use of C2 pointers : No
Read offset correction : 48Overread into Lead-In and Lead-Out : NoFill up missing offset samples with silence : YesDelete leading and trailing silent blocks : NoNull samples used in CRC calculations : YesUsed interface : Native Win32 interface for Win NT & 2000
Used output format : User Defined EncoderSelected bitrate : 128 kBit/sQuality : HighAdd ID3 tag : NoCommand line compressor : C:\Program Files (x86)\Exact Audio Copy\Flac\flac.exeAdditional command line options : -V -8 -T "Date=%year%" -T "Genre=%genre%" %source%
TOC of the extracted CD
Track | Start | Length | Start sector | End sector --------------------------------------------------------- 1 | 0:00.00 | 11:12.00 | 0 | 50399 2 | 11:12.00 | 5:08.37 | 50400 | 73536 3 | 16:20.37 | 5:35.00 | 73537 | 98661 4 | 21:55.37 | 7:00.00 | 98662 | 130161 5 | 28:55.37 | 9:33.00 | 130162 | 173136 6 | 38:28.37 | 4:13.00 | 173137 | 192111 7 | 42:41.37 | 5:40.00 | 192112 | 217611 8 | 48:21.37 | 6:00.00 | 217612 | 244611
Range status and errors
Selected range
Filename C:\temp\Weber, Neukomm - Clarinet Quintets\Weber, Neukomm - Clarinet Quintets.wav
Peak level 94.7 % Extraction speed 5.1 X Range quality 100.0 % Test CRC 03CA6451 Copy CRC 03CA6451 Copy OK
No errors occurred
AccurateRip summary
Track 1 accurately ripped (confidence 3) [C5D148DE] (AR v2)Track 2 accurately ripped (confidence 3) [37A4AA24] (AR v2)Track 3 accurately ripped (confidence 3) [689A90FC] (AR v2)Track 4 accurately ripped (confidence 3) [6D056389] (AR v2)Track 5 accurately ripped (confidence 3) [B1FA2A8F] (AR v2)Track 6 accurately ripped (confidence 3) [BD9B3FFF] (AR v2)Track 7 accurately ripped (confidence 3) [F335021A] (AR v2)Track 8 accurately ripped (confidence 3) [3AFF5AB3] (AR v2)
All tracks accurately ripped
End of status report
==== Log checksum B38F3DD9C1A6200ED615393A899996238FE094489700A409DEB6E3A909382722 ====
[doutdess.info].t262314.torrent
Torrent: Registered [ 2018-04-19 22:45 ] · CBD6D6AEE7FB3D4F05EF08166E666D4208232384

38 KB

Status: checked
Completed: 0 times
Size: 238 MB
(Classical) Weber, Neukomm - Clarinet Quintets - Eric Hoeprich, Ensemble LES ADIEUX - 2007, FLAC (image+.cue) lossless скачать торрент бесплатно и без регистрации

[Profile] [PM]
Forum Topic Author Size
Вокальная музыка в lossless ((classical/operetta)) Schönes bleibt. Unvergessene Tenöre bei WDR 4 / Прекрасное остаётся - 2000, FLAC (image+.cue) lossless Vi$itReal 401 MB
Вокальная и хоровая музыка lossy (Classical (Lieder)) (Lieder) Norman Bailey - Songs of Hugo Wolf - 1979, MP3 (tracks) 320 kbps RelizMAN 120 MB
Концерт для инструмента с оркестром в lossless (Classical ) Top 20 CDs for your Classical Music Collection - ClassicalCDguide.com: 02 - W. A. Mozart - Great Piano Concertos N 20 - 25 (1997) APE (tracks), 450-566 kb/s RelizMAN 582 MB
Концерт для инструмента с оркестром в lossless (Classical ) Top 20 CDs for your Classical Music Collection - ClassicalCDguide.com: 04 - Bach: Die Brandenburgische Konzerte - Orchestra of the Age of Enlightenment 2 CD (1999) APE (tracks), 610-769... RelizMAN 462 MB
Оркестровая музыка в lossless (Classical ) Top 20 CDs for your Classical Music Collection - ClassicalCDguide.com: 06 - Igor Stravinsky; Petroushka, Le Sacre du Printemps - Columbia Symphony Orchestra (Sony 1990) APE (tracks),... Vi$itReal 274 MB
Камерная инструментальная музыка в lossless (Classical ) Top 20 CDs for your Classical Music Collection - ClassicalCDguide.com: 07 - Franz Schubert - \'Trout\' Quintet & \'Death and the Maiden\' - Amadeus Quartet (DG ... Vi$itReal 343 MB
Камерная инструментальная музыка в lossless (Classical ) Top 20 CDs for your Classical Music Collection - ClassicalCDguide.com: 10 - Georges Bizet; Carmen - Sir Thomas Beecham, de Los Angeles, Gedda, Michau, Blanc (EMI 2000) аре (по-треково),... Vi$itReal 745 MB
Камерная инструментальная музыка в lossless (Classical ) Top 20 CDs for your Classical Music Collection - ClassicalCDguide.com: 12 - Франц Шуберт - Симфония No. 3, Unfinished 39; - Carlos Kleiber и Wiener Philharmoniker (DG 1... Vi$itReal 186 MB
Display posts:    

Current time is: 22-Jul 04:19

All times are UTC + 3



You cannot post new topics in this forum
You cannot reply to topics in this forum
You cannot edit your posts in this forum
You cannot delete your posts in this forum
You cannot vote in polls in this forum
You cannot attach files in this forum
You can download files in this forum